<?xml version="1.0" standalone="no"?>
<!DOCTYPE svg PUBLIC "-//W3C//DTD SVG 1.1//EN" "http://www.w3.org/Graphics/SVG/1.1/DTD/svg11.dtd" >
<svg>
<metadata>
Created by FontForge 20090622 at Fri Nov 20 05:12:05 2015
 By deploy user
Part of the digitally encoded machine readable outline data for producing the Typefaces provided is copyrighted &#194;&#169; 2007 Linotype GmbH, www.linotype.com. All rights reserved. This software is the property of Linotype GmbH, and may not be reproduced, used, displayed, modified, disclosed or transferred without the express written approval of Linotype GmbH.  Copyright &#194;&#169; 1991, 1992, 2002 Adobe Systems Incorporated. All Rights Reserved. PMN Caecilia is a trademark of Linotype GmbH and may be registered in certain jurisdictions. This typeface is original artwork of Peter Matthias Noordzij. The design may be protected in certain jurisdictions.
</metadata>
<defs>
<font id="PMNCaeciliaW01-45Light" horiz-adv-x="556" >
  <font-face 
    font-family="PMNCaeciliaW01-45Light"
    font-weight="400"
    font-stretch="normal"
    units-per-em="1000"
    panose-1="2 6 4 2 3 3 6 2 2 4"
    ascent="769"
    descent="-231"
    x-height="514"
    cap-height="700"
    bbox="-60 -266 1130 912"
    underline-thickness="50"
    underline-position="-50"
    unicode-range="U+000D-U+25FC"
  />
<missing-glyph horiz-adv-x="0" 
 />
    <glyph glyph-name=".notdef" horiz-adv-x="0" 
 />
    <glyph glyph-name="glyph1" horiz-adv-x="0" 
 />
    <glyph glyph-name="uni000D" unicode="&#xd;" horiz-adv-x="0" 
 />
    <glyph glyph-name="space" unicode=" " horiz-adv-x="278" 
 />
    <glyph glyph-name="exclam" unicode="!" horiz-adv-x="316" 
d="M180 240h-44l-8 529h60zM112 36q0 20 13.5 34t32.5 14t32.5 -14t13.5 -34t-13.5 -34t-32.5 -14t-32.5 14t-13.5 34z" />
    <glyph glyph-name="quotedbl" unicode="&#x22;" horiz-adv-x="333" 
d="M208 696q-3 27 -3 44q0 12 8 24.5t30 12.5t30 -12.5t8 -24.5q0 -17 -3 -44l-10 -136q-1 -11 -6 -19t-19 -8t-19 8t-6 19zM55 696q-3 27 -3 44q0 12 8 24.5t30 12.5t30 -12.5t8 -24.5q0 -17 -3 -44l-10 -136q-1 -11 -6 -19t-19 -8t-19 8t-6 19z" />
    <glyph glyph-name="numbersign" unicode="#" 
d="M360 428h-142l-22 -156h142zM331 224h-142l-31 -224h-48l31 224h-112v48h119l22 156h-112v48h119l31 224h48l-31 -224h142l31 224h48l-31 -224h112v-48h-119l-22 -156h112v-48h-119l-31 -224h-48z" />
    <glyph glyph-name="dollar" unicode="$" 
d="M93 156l-2 -98q42 -12 84 -16t77 -4l2 292l-38 9q-79 19 -126.5 60.5t-47.5 117.5q0 55 23 92.5t56 59.5t70 31.5t65 9.5l2 127h44l-2 -127q24 0 50 -3t50.5 -7.5t44.5 -9t31 -8.5l-2 -128h-48l2 88q-5 2 -18 5.5t-31 6.5t-39 5.5t-40 2.5l-2 -284l48 -12q34 -9 65 -23
t53.5 -35.5t36 -50.5t13.5 -68q0 -49 -18 -85.5t-48 -61t-69.5 -37.5t-82.5 -15l-2 -134h-44l2 134q-28 0 -59.5 2.5t-61 6.5t-53 8.5t-35.5 8.5l2 140h48zM256 662q-21 0 -48.5 -7t-51.5 -23t-41 -42.5t-17 -65.5q0 -29 9 -50t24.5 -36t37.5 -25t48 -17l37 -10zM296 38
q30 1 59.5 10t52 27t36.5 45.5t14 63.5q0 31 -10.5 53t-27.5 37t-38 24t-41 14l-43 10z" />
    <glyph glyph-name="percent" unicode="%" horiz-adv-x="852" 
d="M209 710q66 0 107 -42.5t41 -114.5q0 -39 -12 -69t-32 -50.5t-47.5 -31t-58.5 -10.5q-35 0 -63 12t-47.5 33t-30 50t-10.5 64q0 34 11 63t31.5 50.5t48.5 33.5t62 12zM207 670q-46 0 -74.5 -31t-28.5 -88q0 -25 6.5 -46.5t19.5 -37.5t32.5 -25.5t45.5 -9.5
q48 0 74.5 33.5t26.5 89.5q0 24 -6 44.5t-18.5 36.5t-32 25t-45.5 9zM648 308q66 0 107 -42.5t41 -114.5q0 -39 -12 -69t-32 -50.5t-47.5 -31t-58.5 -10.5q-35 0 -63 12t-47.5 33t-30 50t-10.5 64q0 34 11 63t31.5 50.5t48.5 33.5t62 12zM646 268q-46 0 -74.5 -31t-28.5 -88
q0 -25 6.5 -46.5t19.5 -37.5t32.5 -25.5t45.5 -9.5q48 0 74.5 33.5t26.5 89.5q0 24 -6 44.5t-18.5 36.5t-32 25t-45.5 9zM170 -30l459 784l36 -24l-459 -784z" />
    <glyph glyph-name="ampersand" unicode="&#x26;" horiz-adv-x="815" 
d="M519 411h223v-44h-86q-2 -77 -23.5 -136t-48.5 -97q18 -19 39.5 -38t43.5 -36q13 -10 27 -13t28 -3h25v-44h-34q-17 0 -32 3t-30.5 11t-32.5 21t-38 33l-26 26q-46 -55 -101 -78.5t-124 -23.5q-62 0 -106 16.5t-73 43.5t-42.5 62t-13.5 71q0 57 34.5 102t92.5 86l25 18
l-40 41q-25 29 -41.5 62.5t-16.5 69.5q0 31 12 58t34.5 47t54 31.5t70.5 11.5q42 0 70.5 -13t46 -32.5t25.5 -42.5t8 -44q0 -45 -19.5 -78.5t-58.5 -61.5l-70 -50l230 -223q24 38 38.5 89t14.5 111h-85v44zM332 449q39 27 62 56.5t23 62.5q0 27 -8.5 46t-23 31t-33 17.5
t-38.5 5.5q-26 0 -47 -8t-36 -22t-23 -32.5t-8 -39.5q0 -30 15 -56t40 -53l37 -37zM248 339q-23 -17 -41 -33.5t-31 -34.5t-19.5 -38.5t-6.5 -47.5q0 -30 13 -57.5t36.5 -47.5t57 -32t75.5 -12q34 0 63 8t53 20.5t42.5 28t31.5 31.5l-244 235z" />
    <glyph glyph-name="quotesingle" unicode="'" horiz-adv-x="222" 
d="M76 696q-3 27 -3 44q0 12 8 24.5t30 12.5t30 -12.5t8 -24.5q0 -17 -3 -44l-10 -136q-1 -11 -6 -19t-19 -8t-19 8t-6 19z" />
    <glyph glyph-name="parenleft" unicode="(" horiz-adv-x="315" 
d="M273 -266q-91 118 -135.5 249.5t-44.5 274.5q0 94 13.5 171.5t36.5 141t53 116t63 97.5l40 -25q-25 -33 -52.5 -76t-50 -102t-37 -138t-14.5 -185q0 -89 15 -164.5t38.5 -137.5t53 -111t58.5 -84z" />
    <glyph glyph-name="parenright" unicode=")" horiz-adv-x="315" 
d="M42 784q91 -119 135.5 -251t44.5 -275q0 -95 -13.5 -172t-36.5 -140.5t-53 -115.5t-63 -96l-40 25q25 32 52.5 74.5t50 101.5t37 138t14.5 185q0 88 -15 164t-38.5 138.5t-53 111.5t-58.5 85z" />
    <glyph glyph-name="asterisk" unicode="*" horiz-adv-x="334" 
d="M190 769l-8 -132l113 64l18 -35l-117 -56l117 -55l-18 -35l-113 64l8 -131h-48l8 131l-112 -64l-17 35l116 55l-116 56l17 35l112 -64l-8 132h48z" />
    <glyph glyph-name="plus" unicode="+" horiz-adv-x="600" 
d="M276 229h-229v48h229v229h48v-229h229v-48h-229v-229h-48v229z" />
    <glyph glyph-name="comma" unicode="," horiz-adv-x="278" 
d="M87 -136q4 4 12.5 14t16 23t13.5 28t6 29q0 18 -7 29t-15 19.5l-15 16.5t-7 19q0 22 13.5 32t31.5 10q21 0 38 -20.5t17 -58.5q0 -23 -6.5 -46.5t-17.5 -45.5t-25.5 -40.5t-30.5 -32.5z" />
    <glyph glyph-name="hyphen" unicode="-" horiz-adv-x="389" 
d="M73 286h243v-52h-243v52z" />
    <glyph glyph-name="period" unicode="." horiz-adv-x="278" 
d="M93 36q0 20 13.5 34t32.5 14t32.5 -14t13.5 -34t-13.5 -34t-32.5 -14t-32.5 14t-13.5 34z" />
    <glyph glyph-name="slash" unicode="/" horiz-adv-x="389" 
d="M347 777l46 -16l-351 -838l-46 16z" />
    <glyph glyph-name="zero" unicode="0" 
d="M101 342q0 -61 11 -116t32.5 -97t54.5 -66.5t78 -24.5q37 0 69.5 22.5t56.5 64.5t38 102t14 135q0 68 -12.5 123.5t-34.5 94.5t-53 60.5t-68 21.5q-43 0 -77.5 -23t-58.5 -65t-37 -101t-13 -131zM45 339q0 67 14.5 133.5t45.5 119t77.5 85.5t111.5 33q51 0 91.5 -26
t68 -72.5t42.5 -110t15 -137.5q0 -65 -14 -131.5t-43 -120.5t-73.5 -88t-106.5 -34q-63 0 -106.5 31.5t-71 81.5t-39.5 112t-12 124z" />
    <glyph glyph-name="one" unicode="1" 
d="M144 44h143l4 599l-11.5 -10t-12.5 -9l-162 -104l-27 40l221 140h44l-4 -656h149v-44h-344v44z" />
    <glyph glyph-name="two" unicode="2" 
d="M63 41l185 184q78 78 121.5 149t43.5 144q0 68 -37.5 106t-106.5 38q-35 0 -59.5 -10.5t-41 -26t-26.5 -34t-15.5 -35t-7 -28t-1.5 -13.5h-52q0 6 3 23t11 38.5t23 45t38 43.5t56.5 32.5t79.5 12.5q49 0 85 -15.5t60 -41t35.5 -60t11.5 -71.5q0 -44 -15 -87.5
t-40.5 -84.5t-59 -80t-70.5 -74l-153 -147v-3q12 1 32 1.5t48 0.5h277v-48h-425v41z" />
    <glyph glyph-name="three" unicode="3" 
d="M72 79q9 -5 25.5 -11.5t39 -13.5t49.5 -11.5t57 -4.5q38 0 71.5 10t58 29.5t39 47.5t14.5 64q0 41 -14 68.5t-43 44t-73 23t-104 6.5h-14v48h15q29 0 65 8.5t67 28t52 51t21 78.5q0 57 -36 87t-97 30q-47 0 -76 -14.5t-45 -34.5t-21.5 -42t-5.5 -37h-52q0 27 11 57.5
t35 57t62.5 44t92.5 17.5q93 0 140.5 -46.5t47.5 -123.5q0 -33 -12 -61.5t-32 -50t-45.5 -37t-53.5 -23.5v-2q25 -2 54.5 -11t55.5 -29.5t43.5 -53t17.5 -80.5q0 -45 -17.5 -82.5t-49.5 -64t-78 -41t-104 -14.5q-49 0 -94 11.5t-70 23.5z" />
    <glyph glyph-name="four" unicode="4" 
d="M341 546q0 22 1 43l2 43h-2q-19 -36 -42 -68l-216 -303q12 1 32 1.5t48 0.5h175zM255 44h82l2 175h-311v39l313 442h52l-2 -437h140v-44h-140l-2 -175h89v-44h-223v44z" />
    <glyph glyph-name="five" unicode="5" 
d="M444 652h-295l-2 -231q73 0 133 -11.5t103 -37t66 -66t23 -99.5q0 -48 -17.5 -87.5t-50.5 -68.5t-80 -45t-106 -16q-33 0 -72 6t-70 20v51q22 -11 58.5 -20t80.5 -9q98 0 149.5 43.5t51.5 118.5q0 52 -23 86t-65.5 53t-101.5 26.5t-131 7.5l2 327h347v-48z" />
    <glyph glyph-name="six" unicode="6" 
d="M481 650q-14 4 -38.5 8t-47.5 4q-63 0 -108 -17.5t-76 -46.5t-49.5 -65t-29 -73t-13.5 -72t-3 -60q36 43 80.5 67t102.5 24q50 0 87 -18t61.5 -47t36.5 -67t12 -77q0 -45 -13.5 -85t-39.5 -70t-64.5 -47.5t-88.5 -17.5q-65 0 -109 25t-71 67.5t-38.5 97.5t-11.5 115
q0 87 18.5 163t59 132t105 88t157.5 32q12 0 26 -1.5t26.5 -3t22.5 -4t13 -3.5zM440 209q0 35 -9.5 65t-28.5 51.5t-47 33.5t-64 12q-42 0 -75 -15t-55 -33t-33.5 -33.5t-11.5 -17.5q0 -48 10.5 -90.5t32.5 -74.5t55 -50.5t77 -18.5q30 0 57 11t47.5 33t32.5 53.5t12 73.5z
" />
    <glyph glyph-name="seven" unicode="7" 
d="M69 700h416v-36l-94 -202q-52 -117 -113.5 -237.5t-129.5 -224.5h-64q38 54 85 134t95 180l73.5 157.5l68.5 146.5q10 19 19 34h-356v48z" />
    <glyph glyph-name="eight" unicode="8" 
d="M228 362l-55 33q-38 23 -64 56t-26 84q0 81 54.5 128t149.5 47q91 0 139 -43.5t48 -112.5q0 -32 -9.5 -56.5t-24.5 -44t-34 -34.5t-38 -26l-43 -25l54 -30q23 -13 44.5 -27.5t38 -34t26.5 -45t10 -59.5q0 -40 -16 -73.5t-45 -57.5t-70.5 -37.5t-93.5 -13.5t-92 13.5
t-67.5 36.5t-41.5 55t-14 68q0 33 11.5 60t29.5 48.5t40 38t43 27.5zM279 392l46 28l37 24.5t31 28t21 34.5t8 43q0 54 -39 83t-99 29q-30 0 -57.5 -7.5t-47.5 -22.5t-32 -36.5t-12 -49.5q0 -27 7.5 -46.5t21 -34.5t31 -26.5t37.5 -21.5zM276 340l-47 -26q-25 -14 -46 -28
t-36.5 -31.5t-24 -39.5t-8.5 -51q0 -30 12.5 -53t34.5 -39.5t52 -25t65 -8.5q76 0 120 35.5t44 98.5q0 42 -23.5 70.5t-66.5 53.5z" />
    <glyph glyph-name="nine" unicode="9" 
d="M75 50q14 -4 38.5 -8t47.5 -4q63 0 108 17.5t76 46.5t49.5 65t29 73t13.5 71.5t3 60.5q-36 -43 -80.5 -67t-102.5 -24q-50 0 -87 18t-61.5 47t-36.5 67t-12 77q0 45 13.5 85t39.5 70t64.5 47.5t88.5 17.5q65 0 109 -25t71 -67.5t38.5 -97.5t11.5 -115q0 -87 -18.5 -163
t-59 -132t-105 -88t-157.5 -32q-12 0 -26 1.5t-26.5 3t-22.5 3.5t-13 4zM116 491q0 -35 9.5 -65t28.5 -51.5t47 -33.5t64 -12q42 0 75 15t55 33t33.5 33.5t11.5 17.5q0 48 -11 90.5t-32.5 74.5t-54.5 50.5t-77 18.5q-30 0 -57 -11t-47.5 -33t-32.5 -53.5t-12 -73.5z" />
    <glyph glyph-name="colon" unicode=":" horiz-adv-x="278" 
d="M93 448q0 20 13.5 34t32.5 14t32.5 -14t13.5 -34t-13.5 -34t-32.5 -14t-32.5 14t-13.5 34zM93 36q0 20 13.5 34t32.5 14t32.5 -14t13.5 -34t-13.5 -34t-32.5 -14t-32.5 14t-13.5 34z" />
    <glyph glyph-name="semicolon" unicode=";" horiz-adv-x="278" 
d="M87 -136q4 4 12.5 14t16 23t13.5 28t6 29q0 18 -7 29t-15 19.5l-15 16.5t-7 19q0 22 13.5 32t31.5 10q21 0 38 -20.5t17 -58.5q0 -23 -6.5 -46.5t-17.5 -45.5t-25.5 -40.5t-30.5 -32.5zM93 448q0 20 13.5 34t32.5 14t32.5 -14t13.5 -34t-13.5 -34t-32.5 -14t-32.5 14
t-13.5 34z" />
    <glyph glyph-name="less" unicode="&#x3c;" horiz-adv-x="600" 
d="M47 281l506 233v-50l-458 -211l458 -211v-50l-506 233v56z" />
    <glyph glyph-name="equal" unicode="=" horiz-adv-x="600" 
d="M47 375h506v-48h-506v48zM47 179h506v-48h-506v48z" />
    <glyph glyph-name="greater" unicode="&#x3e;" horiz-adv-x="600" 
d="M553 225l-506 -233v50l458 211l-458 211v50l506 -233v-56z" />
    <glyph glyph-name="question" unicode="?" horiz-adv-x="500" 
d="M191 225q-6 4 -14 11.5t-16 18.5t-13.5 26t-5.5 34q0 31 13.5 51t44.5 45l96 76q28 23 46 52t18 65q0 19 -7 41t-23 41t-42.5 31t-64.5 12q-29 0 -54.5 -5.5t-45.5 -13.5l-7 49q17 7 47.5 12.5t61.5 5.5q45 0 80.5 -13.5t60 -36t37.5 -52t13 -62.5q0 -45 -17 -81t-57 -68
l-90 -73q-23 -18 -38.5 -34t-15.5 -40t12 -37l19 -21zM150 36q0 20 13 34t33 14t33 -14t13 -34t-13 -34t-33 -14t-33 14t-13 34z" />
    <glyph glyph-name="at" unicode="@" horiz-adv-x="800" 
d="M246 282q0 -46 20 -73.5t65 -27.5q39 0 72.5 24.5t57.5 61t37.5 78.5t13.5 76q0 48 -19.5 71.5t-64.5 23.5q-40 0 -73.5 -23.5t-57.5 -58.5t-37.5 -76t-13.5 -76zM569 547h56l-100 -288q-5 -16 -9 -31t-4 -27q0 -24 27 -24q33 0 64.5 22.5t56 57.5t39.5 77t15 80
q0 57 -24.5 104t-65 80.5t-94 51.5t-110.5 18q-73 0 -134 -26t-105.5 -69.5t-69.5 -101t-25 -121.5q0 -66 26 -124t71 -101t106 -68t131 -25q40 0 79.5 9.5t75 27t65 42.5t49.5 56h60q-25 -41 -61 -74.5t-79 -56.5t-91 -35.5t-98 -12.5q-81 0 -151 28.5t-121.5 78
t-80.5 115.5t-29 140q0 75 30 141t82 115t121.5 77.5t148.5 28.5q71 0 133.5 -22.5t109 -62.5t73 -95.5t26.5 -120.5q0 -57 -21.5 -107.5t-55 -88.5t-74.5 -60t-81 -22q-28 0 -48 16t-18 51h-2q-35 -33 -66.5 -50t-72.5 -17q-58 0 -93.5 38.5t-35.5 105.5q0 51 17.5 102
t49 92.5t75.5 67t97 25.5q35 0 64 -18.5t46 -63.5h2z" />
    <glyph glyph-name="A" unicode="A" horiz-adv-x="722" 
d="M8 44h67l270 656h56l240 -656h73v-44h-220v44h87l-91 248h-260l-99 -248h93v-44h-216v44zM380 598q-4 10 -7 19t-5 19h-2q-2 -10 -5 -19t-7 -19l-106 -262h226z" />
    <glyph glyph-name="B" unicode="B" horiz-adv-x="611" 
d="M50 44h80l4 612h-84v44h222q66 0 107.5 -12t69.5 -41q18 -19 32 -48.5t14 -66.5q0 -61 -34 -105.5t-96 -55.5v-2q27 -1 58.5 -10t58 -30t44 -54.5t17.5 -82.5q0 -94 -65.5 -143t-183.5 -49h-244v44zM271 383q31 0 61 8t54 25.5t38.5 45t14.5 65.5t-14 66.5t-46 45.5
q-14 8 -36.5 12.5t-58.5 4.5h-94l-2 -273h83zM287 44q36 0 71.5 5.5t64 22t46.5 45.5t18 76q0 39 -15.5 66.5t-41 45.5t-60 26t-71.5 8h-111l-2 -295h101z" />
    <glyph glyph-name="C" unicode="C" horiz-adv-x="685" 
d="M612 160l-1 -145l-86.5 -17t-114.5 -10q-77 0 -141.5 22t-112 67t-74 113t-26.5 160q0 86 27 153t76 113.5t117.5 71t150.5 24.5q52 0 103 -8.5t92 -23.5l-2 -140h-52l2 105q-33 9 -68.5 14t-78.5 5q-70 0 -127.5 -22t-98 -63.5t-63 -101t-22.5 -133.5q0 -72 21.5 -129.5
t61 -97t96 -60.5t126.5 -21q43 0 79.5 5t62.5 11l1 108h52z" />
    <glyph glyph-name="D" unicode="D" horiz-adv-x="759" 
d="M50 44h80l4 612h-84v44h306q172 0 262.5 -90.5t90.5 -256.5q0 -81 -23 -146t-69 -111t-115 -71t-160 -25h-292v44zM336 44q73 0 132 20.5t100 60t63 97.5t22 132q0 76 -21.5 132.5t-62 94t-98 56.5t-129.5 19h-152l-4 -612h150z" />
    <glyph glyph-name="E" unicode="E" horiz-adv-x="574" 
d="M50 44h80l4 612h-84v44h451v-140h-44v96h-267l-2 -280h243v-44h-243l-2 -288h277l8 104h48l-8 -148h-461v44z" />
    <glyph glyph-name="F" unicode="F" 
d="M50 0v44h80l4 612h-84v44h451l-2 -143h-46l-2 99h-261l-2 -286h267v-44h-267l-2 -282h95v-44h-231z" />
    <glyph glyph-name="G" unicode="G" horiz-adv-x="722" 
d="M697 292v-44h-82l-4 -233l-86.5 -17t-114.5 -10q-77 0 -141.5 22t-112 67t-74 113t-26.5 160q0 86 27 153t76 113.5t117.5 71t150.5 24.5q61 0 108 -8.5t96 -24.5v-135h-52v97q-25 10 -62.5 16.5t-85.5 6.5q-75 0 -134 -22t-100 -63.5t-63 -101t-22 -133.5
q0 -72 21.5 -129.5t61 -97t96 -60.5t126.5 -21q43 0 79.5 5t62.5 11l4 196h-89v44h223z" />
    <glyph glyph-name="H" unicode="H" horiz-adv-x="778" 
d="M50 44h80l4 612h-84v44h224v-44h-84l-2 -286h402l2 286h-88v44h224v-44h-80l-4 -612h84v-44h-224v44h84l2 282h-402l-2 -282h88v-44h-224v44z" />
    <glyph glyph-name="I" unicode="I" horiz-adv-x="334" 
d="M57 0v44h80l4 612h-84v44h220v-44h-80l-4 -612h84v-44h-220z" />
    <glyph glyph-name="J" unicode="J" horiz-adv-x="315" 
d="M267 700v-44h-80l-5 -466q-1 -56 -9.5 -108.5t-33 -99t-68.5 -85.5t-115 -69l-16 44q42 21 76 48t58.5 63.5t38.5 83.5t14 109l4 480h-84v44h220z" />
    <glyph glyph-name="K" unicode="K" horiz-adv-x="685" 
d="M50 44h80l4 612h-84v44h220v-44h-80l-2 -284l331 284h-87v44h220v-44h-65l-339 -294l339 -318h69v-44h-228v44h87l-327 301l-2 -301h84v-44h-220v44z" />
    <glyph glyph-name="L" unicode="L" 
d="M50 0v44h80l4 612h-84v44h220v-44h-80l-4 -612h277l8 104h48l-8 -148h-461z" />
    <glyph glyph-name="M" unicode="M" horiz-adv-x="907" 
d="M42 44h85l4 612h-89v44h164l239 -596q2 -6 4.5 -12.5t3.5 -13.5h2q1 7 3.5 13.5t4.5 12.5l241 596h161v-44h-89l4 -612h85v-44h-226v44h89l-4 570h-2q-3 -13 -10 -29l-237 -585h-45l-235 578q-7 16 -10 32h-2l-4 -566h89v-44h-226v44z" />
    <glyph glyph-name="N" unicode="N" horiz-adv-x="796" 
d="M41 44h81l4 612h-95v44h152l426 -583q11 -17 21 -38h2l3 577h-98v44h228v-44h-77l-5 -656h-56l-427 585l-10.5 17t-9.5 19h-2l-4 -577h92v-44h-225v44z" />
    <glyph glyph-name="O" unicode="O" horiz-adv-x="758" 
d="M702 350q0 -74 -18.5 -139.5t-58 -115t-100.5 -78.5t-146 -29q-86 0 -147.5 27.5t-100.5 76t-57 115t-18 143.5q0 73 18.5 139t58 115.5t100.5 78.5t146 29q86 0 147.5 -27.5t100.5 -76t57 -115t18 -143.5zM646 350q0 151 -71 232.5t-196 81.5t-196 -81.5t-71 -232.5
t71 -232.5t196 -81.5t196 81.5t71 232.5z" />
    <glyph glyph-name="P" unicode="P" 
d="M188 341h104q34 0 64 9.5t52.5 29.5t35 50t12.5 71t-14 70.5t-38 48t-57 27.5t-71 9h-86zM50 44h80l4 612h-84v44h213q42 0 86 -6.5t80.5 -27t59.5 -59.5t23 -103q0 -47 -15.5 -85.5t-45 -66.5t-70.5 -43.5t-92 -15.5h-101l-2 -249h94v-44h-230v44z" />
    <glyph glyph-name="Q" unicode="Q" horiz-adv-x="758" 
d="M56 350q0 73 18.5 139t58 115.5t100.5 78.5t146 29q86 0 147.5 -27.5t100.5 -76t57 -115t18 -143.5q0 -66 -14.5 -125.5t-45.5 -107t-79 -79.5t-115 -43v-2q107 -57 191 -92t145 -35q25 0 37 0.5t21 2.5v-48q-11 -1 -29.5 -2t-35.5 -1q-40 0 -86 14t-99 37t-113 54
l-127 66q-79 4 -135 33t-92 77t-52.5 112.5t-16.5 138.5zM646 350q0 151 -71 232.5t-196 81.5t-196 -81.5t-71 -232.5t71 -232.5t196 -81.5t196 81.5t71 232.5z" />
    <glyph glyph-name="R" unicode="R" horiz-adv-x="648" 
d="M50 44h80l4 612h-84v44h232q53 0 96 -9t73 -30t46 -55.5t16 -85.5q0 -50 -18 -84.5t-44 -56.5t-54 -32.5t-47 -11.5v-2q29 -6 49 -30t36 -50l78 -131l25.5 -39.5t20 -24t19 -11.5t21.5 -3q14 0 22 1t15 3v-48q-9 -2 -22.5 -3t-24.5 -1q-19 0 -32.5 2t-24.5 8t-20.5 17.5
t-20.5 30.5l-107 180q-12 21 -23.5 36.5t-24 26t-27.5 16t-36 5.5h-85l-2 -274h91v-44h-227v44zM284 366q34 0 65.5 9t55.5 27.5t38 46.5t14 65q0 77 -43.5 109.5t-133.5 32.5h-90l-2 -290h96z" />
    <glyph glyph-name="S" unicode="S" horiz-adv-x="574" 
d="M125 158l2 -96q28 -11 69 -18.5t81 -7.5q50 0 85.5 12t58 32t33 46t10.5 55q0 53 -28.5 81.5t-71.5 45t-93 28t-93 31t-71.5 54t-28.5 96.5q0 35 13.5 70t41.5 62.5t71.5 45t104.5 17.5q60 0 106.5 -10.5t75.5 -21.5l2 -128h-48l-2 92q-26 9 -59.5 14.5t-78.5 5.5
q-41 0 -72.5 -11t-53.5 -29.5t-33.5 -43.5t-11.5 -52q0 -53 28.5 -81t71.5 -44.5t93 -28t93 -32.5t71.5 -58t28.5 -104q0 -42 -16 -77.5t-47 -61t-75 -39.5t-100 -14q-29 0 -58 3t-56 8t-51 10.5t-42 11.5l-2 137h52z" />
    <glyph glyph-name="T" unicode="T" horiz-adv-x="668" 
d="M216 44h88l4 612h-224l-4 -113h-48l4 157h596l4 -157h-48l-4 113h-220l-4 -612h92v-44h-236v44z" />
    <glyph glyph-name="U" unicode="U" horiz-adv-x="760" 
d="M264 700v-44h-82q-1 -98 -2.5 -194.5t-1.5 -194.5q0 -67 9.5 -111.5t33 -71t63.5 -37.5t101 -11q62 0 100.5 14t60 45.5t29.5 80.5t9 120l4 360h-88v44h223v-44h-79l-4 -384q-1 -62 -11 -114t-38 -89.5t-78 -59t-130 -21.5q-87 0 -138.5 20.5t-78.5 56.5t-35.5 85.5
t-8.5 107.5q0 100 1.5 199t2.5 199h-89v44h227z" />
    <glyph glyph-name="V" unicode="V" horiz-adv-x="704" 
d="M2 700h219v-44h-87l210 -554q3 -8 5.5 -17t4.5 -17h2q2 8 4.5 17t5.5 17l212 554h-88v44h212v-44h-68l-253 -656h-56l-251 656h-72v44z" />
    <glyph glyph-name="W" unicode="W" horiz-adv-x="1056" 
d="M542 447h-2l-176 -447h-64l-217 656h-75v44h217v-44h-82l183 -566q6 -16 9 -34h2q4 15 11 34l171 426l-43 140h-79v44h216v-44h-81l176 -566q2 -8 4 -17t4 -17h2q2 8 4.5 17t5.5 17l199 566h-93v44h214v-44h-69l-235 -656h-63z" />
    <glyph glyph-name="X" unicode="X" horiz-adv-x="685" 
d="M436 44h86q-11 12 -18 24l-163 248l-170 -248q-5 -6 -9.5 -12t-9.5 -12h94v-44h-219v44h64l224 317l-201 295h-74v44h225v-44h-90l10 -12t9 -12l152 -231l161 231q8 12 20 24h-91v44h217v-44h-69l-209 -295l212 -317h71v-44h-222v44z" />
    <glyph glyph-name="Y" unicode="Y" horiz-adv-x="704" 
d="M248 44h81l4 268l-252 344h-75v44h215v-44h-75q12 -12 20 -24l194 -270l195 270q8 12 20 24h-92v44h215v-44h-66l-243 -344l-4 -268h87v-44h-224v44z" />
    <glyph glyph-name="Z" unicode="Z" horiz-adv-x="648" 
d="M61 44l444 588q9 12 21 24h-401l-4 -108h-48l4 152h510v-44l-440 -588q-9 -12 -21 -24h408l4 111h48l-4 -155h-521v44z" />
    <glyph glyph-name="bracketleft" unicode="[" horiz-adv-x="315" 
d="M278 769v-44h-108l-4 -932h103v-44h-155l4 1020h160z" />
    <glyph glyph-name="backslash" unicode="\" horiz-adv-x="389" 
d="M-4 761l46 16l351 -838l-46 -16z" />
    <glyph glyph-name="bracketright" unicode="]" horiz-adv-x="315" 
d="M37 -251v44h108l4 932h-103v44h155l-4 -1020h-160z" />
    <glyph glyph-name="asciicircum" unicode="^" horiz-adv-x="600" 
d="M277 700h46l184 -365h-55l-152 299l-152 -299h-55z" />
    <glyph glyph-name="underscore" unicode="_" horiz-adv-x="500" 
d="M0 -125v50h500v-50h-500z" />
    <glyph glyph-name="grave" unicode="`" horiz-adv-x="278" 
d="M12 755l34 31l174 -153l-35 -27z" />
    <glyph glyph-name="a" unicode="a" horiz-adv-x="574" 
d="M522 0h-134q0 25 3 58t8 59h-2q-21 -56 -59.5 -92.5t-108.5 -36.5q-34 0 -63.5 8.5t-51.5 26t-35 44.5t-13 64q0 36 14 62.5t38.5 45t58.5 28.5t74 13l139 9q1 12 1.5 23.5t0.5 23.5q0 31 -5.5 57t-20 45t-40.5 29.5t-68 10.5q-43 0 -73.5 -7.5t-46.5 -12.5l-2 -86h-48
l2 118q20 11 64 23.5t112 12.5q52 0 86 -13.5t54 -36t28 -52.5t8 -62q0 -91 -1.5 -167.5t-2.5 -150.5h84v-44zM122 132q0 -43 30 -69.5t85 -26.5q34 0 63.5 14.5t48.5 39.5q13 17 21.5 33.5t12.5 34.5t5.5 39t1.5 48q-69 -2 -119.5 -5.5t-83.5 -14.5t-49 -33t-16 -60z" />
    <glyph glyph-name="b" unicode="b" horiz-adv-x="593" 
d="M152 769l-2 -266q0 -29 -1.5 -55.5t-9.5 -56.5h2q20 60 66.5 97.5t118.5 37.5q52 0 92 -19.5t66 -52.5t39.5 -76.5t13.5 -90.5q0 -62 -15 -116t-47 -95t-82.5 -64.5t-121.5 -23.5q-47 0 -93.5 10.5t-81.5 29.5l4 697h-100v44h152zM147 58q26 -12 57 -19t69 -7
q54 0 93.5 18.5t65 50.5t37.5 75.5t12 94.5q0 41 -9 78.5t-28.5 66t-51 45.5t-76.5 17q-36 0 -67 -15.5t-53 -41.5t-35 -59.5t-13 -70.5z" />
    <glyph glyph-name="c" unicode="c" horiz-adv-x="519" 
d="M417 462q-20 7 -46.5 11.5t-64.5 4.5q-49 0 -85.5 -16.5t-60.5 -45.5t-36 -69.5t-12 -89.5t12 -89.5t36 -70t60.5 -45.5t85.5 -16q54 0 92 8.5t64 21.5v-51q-26 -11 -66 -19t-92 -8q-63 0 -109.5 21.5t-77 58t-46 85.5t-15.5 104t16 104t47.5 85.5t79 58t110.5 21.5
q56 0 91.5 -8t64.5 -19v-125h-48v88z" />
    <glyph glyph-name="d" unicode="d" horiz-adv-x="611" 
d="M493 769l-4 -725h88v-44h-142q0 19 2.5 49.5t5.5 56.5h-2q-10 -24 -24 -45.5t-35 -37.5t-51 -25.5t-71 -9.5q-32 0 -67.5 11.5t-66 40.5t-50.5 78.5t-20 124.5q0 61 17.5 113t50.5 90t81 59t108 21q30 0 64.5 -7t62.5 -18l2 224h-114v44h165zM440 453q-16 7 -48.5 16
t-75.5 9q-54 0 -92.5 -17.5t-63 -49t-36.5 -74.5t-12 -94q0 -41 8.5 -78.5t27.5 -66t50 -45.5t76 -17q76 0 120 58.5t45 164.5z" />
    <glyph glyph-name="e" unicode="e" horiz-adv-x="537" 
d="M433 306q0 34 -9.5 65.5t-29.5 55t-50.5 37.5t-72.5 14q-48 0 -80 -18.5t-51.5 -45t-27.5 -56t-8 -52.5h329zM464 27q-12 -7 -30 -14t-39.5 -12.5t-46 -9t-48.5 -3.5q-63 0 -110 19.5t-78.5 55.5t-47.5 87.5t-16 115.5q0 53 15 100.5t43.5 83t70.5 56t97 20.5
q63 0 104.5 -23.5t66 -61.5t34.5 -85t10 -94h-385q2 -110 52 -168t152 -58q46 0 86 13t72 30z" />
    <glyph glyph-name="f" unicode="f" horiz-adv-x="370" 
d="M61 44h75l2 426h-92v44h92l1 86q1 42 15.5 75t39.5 55.5t60 34.5t78 12q23 0 49.5 -3t45.5 -9l-5 -47q-16 5 -40 10t-47 5q-75 0 -109 -39.5t-35 -99.5l-1 -80h146v-44h-146l-2 -426h93v-44h-220v44z" />
    <glyph glyph-name="g" unicode="g" horiz-adv-x="537" 
d="M534 466h-47q-20 0 -41.5 2t-41.5 3l-2 -2q10 -7 20.5 -18.5t19.5 -28t15 -38t6 -49.5q0 -37 -12.5 -71t-37 -59.5t-60 -41t-81.5 -15.5q-63 0 -92.5 -18t-29.5 -39q0 -20 22 -30.5t62 -17.5l166 -30q24 -4 46 -10.5t39.5 -19.5t28 -33.5t10.5 -52.5q0 -27 -12 -55
t-40.5 -51.5t-76 -38.5t-117.5 -15q-50 0 -93 8.5t-75 26t-50 43.5t-18 61q0 24 11.5 46t30 39.5t43.5 29t52 14.5v2q-13 3 -27 8.5t-26 14.5t-20 22t-8 32t8.5 33t22 23t30 14t31.5 7v2q-18 5 -40.5 15.5t-43 30t-34 50t-13.5 74.5q0 40 14 75t40 61.5t62.5 41.5t82.5 15
q32 0 51.5 -4.5t35.5 -11.5h189v-44zM111 337q0 -28 9.5 -54t28 -46.5t47.5 -32.5t68 -12q69 0 108 39.5t39 104.5q0 29 -10.5 55t-30 45.5t-48 30.5t-64.5 11q-31 0 -58 -10t-46.5 -28t-31 -44t-11.5 -59zM232 -6q-17 -3 -40.5 -10.5t-45.5 -21t-37 -33.5t-15 -47
q0 -18 12 -36.5t35.5 -32.5t58.5 -23t81 -9q34 0 68.5 6t61.5 19.5t44 35t17 51.5q0 20 -6.5 33t-19 21.5t-30 14t-38.5 10.5z" />
    <glyph glyph-name="h" unicode="h" horiz-adv-x="648" 
d="M44 44h77l4 681h-114v44h166l-2 -287q0 -23 -2.5 -46t-8.5 -45h2q18 60 65 97.5t123 37.5q36 0 67.5 -9.5t55 -32.5t37 -61.5t13.5 -97.5q0 -71 -1.5 -140.5t-2.5 -140.5h81v-44h-210v44h77q1 70 2.5 139t1.5 139q0 79 -31.5 117.5t-101.5 38.5q-39 0 -70 -16
t-52.5 -42.5t-33 -61t-11.5 -70.5l-2 -244h81v-44h-210v44z" />
    <glyph glyph-name="i" unicode="i" horiz-adv-x="296" 
d="M32 44h88l3 426h-99v44h151l-3 -470h92v-44h-232v44zM97 725q0 22 13 37t35 15t35 -15t13 -37t-13 -37t-35 -15t-35 15t-13 37z" />
    <glyph glyph-name="j" unicode="j" horiz-adv-x="315" 
d="M49 514h151l-5 -466q-1 -49 -9.5 -97t-33.5 -90t-71.5 -74.5t-123.5 -49.5l-8 45q67 14 105.5 45t58.5 72t25.5 89.5t5.5 98.5l4 383h-99v44zM122 725q0 22 13 37t35 15t35 -15t13 -37t-13 -37t-35 -15t-35 15t-13 37z" />
    <glyph glyph-name="k" unicode="k" horiz-adv-x="574" 
d="M44 44h77l4 681h-114v44h166l-2 -485l220 184v2h-74v44h200v-44h-61l-227 -193l255 -233h55v-44h-198v44h72l-242 219l-2 -219h81v-44h-210v44z" />
    <glyph glyph-name="l" unicode="l" horiz-adv-x="316" 
d="M45 44h85l4 681h-114v44h166l-4 -725h89v-44h-226v44z" />
    <glyph glyph-name="m" unicode="m" horiz-adv-x="980" 
d="M726 44h77q1 70 2.5 139t1.5 139q0 156 -134 156q-34 0 -62 -15.5t-48.5 -41.5t-32 -59t-12.5 -69l-4 -249h81v-44h-210v44h77q1 70 1.5 139t0.5 139q0 156 -130 156q-35 0 -64.5 -15.5t-50.5 -41.5t-33 -59t-12 -69l-2 -249h81v-44h-209v44h76l2 426h-89v44h142
q0 -25 -2.5 -55t-9.5 -68h2q18 60 66.5 97.5t112.5 37.5q66 0 106 -31.5t55 -90.5q7 15 19.5 36t33.5 40t52 32.5t76 13.5q37 0 68.5 -10.5t55 -34t36.5 -62t13 -94.5q0 -71 -1.5 -140.5t-2.5 -140.5h81v-44h-210v44z" />
    <glyph glyph-name="n" unicode="n" horiz-adv-x="648" 
d="M44 44h77l2 426h-90v44h143q0 -25 -2.5 -55t-9.5 -68h2q18 60 65 97.5t123 37.5q36 0 67.5 -9.5t55 -32.5t37 -61.5t13.5 -97.5q0 -71 -1.5 -140.5t-2.5 -140.5h81v-44h-210v44h77q1 70 2.5 139t1.5 139q0 79 -31.5 117.5t-101.5 38.5q-39 0 -70 -16t-52.5 -42.5t-33 -61
t-11.5 -70.5l-2 -244h81v-44h-210v44z" />
    <glyph glyph-name="o" unicode="o" horiz-adv-x="574" 
d="M104 257q0 -49 11.5 -89.5t35 -70t57.5 -45.5t79 -16t79 16t57.5 45.5t35 70t11.5 89.5t-11.5 89.5t-35 69.5t-57.5 45.5t-79 16.5t-79 -16.5t-57.5 -45.5t-35 -69.5t-11.5 -89.5zM48 257q0 55 15 104t45 85.5t75 58t104 21.5t104 -21.5t75 -58t45 -85.5t15 -104
t-15 -104t-45 -85.5t-75 -58t-104 -21.5t-104 21.5t-75 58t-45 85.5t-15 104z" />
    <glyph glyph-name="p" unicode="p" horiz-adv-x="611" 
d="M36 -207h83l5 677h-97v44h150q0 -24 -1.5 -52.5t-5.5 -55.5l3 2q26 53 66.5 85.5t112.5 32.5q52 0 92 -19t66 -51t39.5 -76t13.5 -93q0 -62 -15 -116t-47 -95t-82.5 -64.5t-121.5 -23.5q-41 0 -72.5 5t-51.5 13l-2 -213h93v-44h-228v44zM507 271q0 43 -9 81t-28.5 66
t-51 44t-76.5 16q-73 0 -120 -54.5t-48 -157.5l-1 -211q18 -10 53 -16.5t73 -6.5q54 0 93.5 18.5t65 50.5t37.5 75.5t12 94.5z" />
    <glyph glyph-name="q" unicode="q" horiz-adv-x="611" 
d="M440 453q-16 7 -48.5 16t-75.5 9q-54 0 -92.5 -17.5t-63 -49t-36.5 -74.5t-12 -94q0 -41 8.5 -78.5t27.5 -66t50 -45.5t76 -17q76 0 120 58.5t45 164.5zM351 -207h83l2 209q0 33 1.5 55.5t3.5 45.5h-2q-9 -23 -22.5 -44t-34.5 -36.5t-51 -25t-71 -9.5q-32 0 -67.5 11.5
t-66 40.5t-50.5 78.5t-20 124.5q0 60 17.5 112t51 90t82.5 59.5t111 21.5q43 0 75 -8t58 -16l39 8l-4 -717h96v-44h-231v44z" />
    <glyph glyph-name="r" unicode="r" horiz-adv-x="426" 
d="M49 44h82l4 426h-97v44h151q0 -36 -2.5 -79.5t-5.5 -85.5h2q9 33 23.5 65t36 56.5t49.5 40t63 15.5q24 0 40.5 -3.5t31.5 -7.5l-8 -50q-14 6 -28.5 9.5t-34.5 3.5q-34 0 -64.5 -20t-54 -54.5t-37.5 -81.5t-15 -101l-2 -177h96v-44h-230v44z" />
    <glyph glyph-name="s" unicode="s" horiz-adv-x="481" 
d="M103 146l2 -87q17 -11 52 -19t73 -8q37 0 62.5 9.5t41.5 24.5t23 33.5t7 35.5q0 33 -18.5 55.5t-69.5 34.5l-88 21q-63 15 -99.5 47t-36.5 89q0 32 13 58.5t36.5 45.5t56.5 29.5t73 10.5q48 0 86 -9t70 -23l2 -117h-48l-2 83q-17 9 -42 15.5t-63 6.5q-61 0 -93.5 -25.5
t-32.5 -69.5q0 -38 21 -61t66 -33l95 -21q67 -14 98.5 -45t31.5 -85q0 -79 -53.5 -116.5t-140.5 -37.5q-55 0 -98.5 10t-69.5 24l-4 124h49z" />
    <glyph glyph-name="t" unicode="t" horiz-adv-x="389" 
d="M374 14q-16 -8 -45.5 -17t-72.5 -9q-66 0 -98 36t-32 117q0 83 0.5 164.5t1.5 164.5h-90v44h90l2 134l52 4l-2 -138h171v-44h-171q-1 -78 -1.5 -155.5t-0.5 -155.5q0 -35 4 -59t14.5 -39t28 -22t43.5 -7q28 0 59 9t52 20z" />
    <glyph glyph-name="u" unicode="u" horiz-adv-x="648" 
d="M178 514q-1 -81 -2.5 -161t-1.5 -161q0 -79 31.5 -117.5t101.5 -38.5q79 0 121.5 55.5t44.5 156.5l4 222h-92v44h144l-4 -470h80v-44h-131q0 25 2.5 55t9.5 68h-2q-18 -60 -66.5 -97.5t-112.5 -37.5q-39 0 -72.5 9.5t-58 33t-38.5 62t-14 96.5q0 71 1.5 140.5t2.5 140.5
h-88v44h140z" />
    <glyph glyph-name="v" unicode="v" 
d="M78 470h-66v44h191v-44h-65l129 -366q6 -17 8 -31.5l4 -28.5h2q2 14 5 28.5t9 31.5l133 366h-75v44h191v-44h-60l-181 -470h-48z" />
    <glyph glyph-name="w" unicode="w" horiz-adv-x="833" 
d="M213 514v-44h-74l126 -374l13 -40h2l11 40l104 287l-30 87h-59v44h194v-44h-79l119 -366l12 -48h2l13 48l129 366h-76v44h194v-44h-66l-170 -470h-56l-91 274q-5 13 -8 26.5t-5 27.5h-2q-4 -14 -8.5 -27.5l-9.5 -27.5l-97 -273h-52l-166 470h-64v44h194z" />
    <glyph glyph-name="x" unicode="x" horiz-adv-x="574" 
d="M25 44h64l170 218l-155 208h-70v44h199v-44h-72q15 -15 24 -28l106 -144l108 144q9 13 24 28h-79v44h194v-44h-62l-157 -205l166 -221h64v-44h-194v44h69q-7 7 -12.5 13.5t-10.5 14.5l-114 154l-117 -154q-9 -13 -24 -28h73v-44h-194v44z" />
    <glyph glyph-name="y" unicode="y" 
d="M206 514v-44h-73l139 -379q6 -15 11 -38h2q1 7 3.5 17.5t5.5 18.5l133 381h-77v44h191v-44h-62l-179 -501q-21 -59 -43.5 -102.5t-50 -72.5t-62 -43t-79.5 -14q-19 0 -33 2.5t-27 5.5v49q9 -2 26.5 -5.5t36.5 -3.5q54 0 90 26.5t59 82.5l39 93l-184 483h-67v44h201z" />
    <glyph glyph-name="z" unicode="z" horiz-adv-x="519" 
d="M56 44l325 398q13 16 26 28h-285l-4 -90h-49l6 134h393v-44l-325 -398q-13 -16 -26 -28h297l6 95h49l-8 -139h-405v44z" />
    <glyph glyph-name="braceleft" unicode="{" horiz-adv-x="315" 
d="M125 633q0 62 21.5 99t77.5 37h51v-44h-50q-23 0 -35.5 -16t-12.5 -61v-224q1 -81 -16.5 -118.5t-51.5 -45.5v-2q34 -8 51.5 -45.5t16.5 -118.5v-224q0 -45 12.5 -61t35.5 -16h50v-44h-51q-56 0 -77.5 37t-21.5 99v199q0 43 -4 72t-12 47t-20 25.5t-28 8.5v44
q31 1 47.5 34t16.5 119v199z" />
    <glyph glyph-name="bar" unicode="|" horiz-adv-x="222" 
d="M87 750h48v-1000h-48v1000z" />
    <glyph glyph-name="braceright" unicode="}" horiz-adv-x="315" 
d="M91 769q56 0 77.5 -37t21.5 -99v-199q0 -86 16 -119t48 -34v-44q-16 -1 -28 -8.5t-20 -25.5t-12 -47t-4 -72v-199q0 -62 -21.5 -99t-77.5 -37h-51v44h50q23 0 35.5 16t12.5 61v224q-1 81 16.5 118.5t51.5 45.5v2q-34 8 -51.5 45.5t-16.5 118.5v224q0 45 -12.5 61
t-35.5 16h-50v44h51z" />
    <glyph glyph-name="asciitilde" unicode="~" horiz-adv-x="600" 
d="M69 227q8 16 19.5 31.5t26.5 27.5t34.5 19.5t44.5 7.5q32 0 62 -10.5t53 -23.5l54 -23.5t44 -10.5q15 0 27.5 6.5t23 16t19.5 21.5l18 24l36 -30q-11 -16 -23.5 -31.5t-27 -27.5t-33 -19.5t-41.5 -7.5q-31 0 -57 10.5t-55 23.5q-24 13 -49.5 23.5t-55.5 10.5
q-17 0 -29.5 -6.5t-23 -16t-18 -21.5t-13.5 -24z" />
    <glyph glyph-name="uni00A0" unicode="&#xa0;" horiz-adv-x="278" 
 />
    <glyph glyph-name="exclamdown" unicode="&#xa1;" horiz-adv-x="316" 
d="M136 286h44l8 -529h-60zM204 490q0 -20 -13.5 -34t-32.5 -14t-32.5 14t-13.5 34t13.5 34t32.5 14t32.5 -14t13.5 -34z" />
    <glyph glyph-name="cent" unicode="&#xa2;" 
d="M292 475q-82 -10 -122 -69t-40 -149q0 -89 39.5 -148t120.5 -70zM290 -9q-55 5 -95.5 28t-67.5 59t-40 82t-13 97t13.5 97.5t40.5 82t68 58.5t96 28l1 111h44l-1 -109q53 -1 86.5 -8.5t59.5 -17.5v-125h-48v88q-17 6 -41 10.5t-57 4.5l-2 -440q51 0 86 8.5t60 20.5v-51
q-24 -11 -61 -18.5t-85 -7.5l-1 -123h-44z" />
    <glyph glyph-name="sterling" unicode="&#xa3;" 
d="M24 44h77q20 32 29.5 67.5t9.5 90.5q0 47 -1.5 84t-2.5 59h-93v44h90q-2 18 -4.5 46t-2.5 59q0 46 14 85t42.5 68t72.5 45.5t104 17.5q48 1 85 -7.5t72 -18.5l-2 -128h-48l2 88q-24 8 -51 13t-59 5q-88 0 -132 -45.5t-44 -116.5q0 -33 1.5 -60.5t3.5 -50.5h158v-44h-156
l4.5 -58t2.5 -73q0 -22 -2.5 -47t-7.5 -48.5t-12 -43.5t-17 -31h303l8 97h48l-8 -141h-484v44z" />
    <glyph glyph-name="currency" unicode="&#xa4;" 
d="M84 197q-54 67 -54 153q0 41 12.5 81t43.5 72l-56 57l38 38l56 -55q33 28 73.5 41.5t80.5 13.5q42 0 81.5 -13.5t72.5 -41.5l56 55l38 -38l-54 -54q29 -33 41.5 -73.5t12.5 -82.5q0 -41 -12.5 -80t-40.5 -74l53 -56l-38 -38l-53 58q-34 -30 -74 -44t-83 -14
q-42 0 -82 13.5t-75 44.5l-53 -58l-38 38zM78 350q0 -41 16 -77.5t43 -63.5t63.5 -43t77.5 -16t77.5 16t63.5 43t43 63.5t16 77.5t-16 77.5t-43 63.5t-63.5 43t-77.5 16t-77.5 -16t-63.5 -43t-43 -63.5t-16 -77.5z" />
    <glyph glyph-name="yen" unicode="&#xa5;" 
d="M195 44h64l2 131h-147v38h147l1 102h-148v38h126l-166 303h-59v44h170v-44h-59l158 -302l155 302h-68v44h170v-44h-52l-158 -303h123v-38h-144l-1 -102h145v-38h-145l-2 -131h65v-44h-177v44z" />
    <glyph glyph-name="brokenbar" unicode="&#xa6;" horiz-adv-x="222" 
d="M87 175h48v-350h-48v350zM87 675h48v-350h-48v350z" />
    <glyph glyph-name="section" unicode="&#xa7;" 
d="M415 644q-18 7 -48 13.5t-65 6.5q-41 0 -69 -8.5t-45.5 -23t-25.5 -32.5t-8 -37q0 -24 7 -41.5t19 -30.5t27 -23t31 -19l126 -68q51 -28 78 -61.5t27 -81.5q0 -41 -21 -73.5t-50 -50.5l-24 -15l28 -20q29 -19 47.5 -49.5t18.5 -72.5q0 -33 -14 -62.5t-40.5 -52t-65 -36
t-87.5 -13.5q-28 0 -55.5 4t-50.5 9t-41 11l-27 9v129h44v-92q17 -6 53.5 -14t76.5 -8q69 0 110 31t41 83q0 22 -8 39.5t-20 31t-27 23.5t-30 18l-121 65q-24 13 -44.5 26.5t-36.5 31t-25 39.5t-9 51t7 50.5t19.5 37.5t31.5 28t43 24q-23 15 -40.5 28.5t-29.5 29.5t-18 35
t-6 45q0 37 15.5 66t43 48.5t64.5 29.5t80 10q52 0 93.5 -9.5t68.5 -19.5v-116h-48v77zM204 380q-26 -17 -41.5 -39.5t-15.5 -55.5q0 -35 14.5 -56t49.5 -40l123 -67l28 20q23 17 38 37.5t15 55.5t-20 59t-51 41l-112 61z" />
    <glyph glyph-name="dieresis" unicode="&#xa8;" horiz-adv-x="278" 
d="M201 688q0 20 12.5 34t31.5 14t31.5 -14t12.5 -34t-12.5 -34t-31.5 -14t-31.5 14t-12.5 34zM-11 688q0 20 12.5 34t31.5 14t31.5 -14t12.5 -34t-12.5 -34t-31.5 -14t-31.5 14t-12.5 34z" />
    <glyph glyph-name="copyright" unicode="&#xa9;" horiz-adv-x="800" 
d="M595 275q-8 -34 -24.5 -62.5t-40.5 -49t-54 -32t-64 -11.5q-50 0 -90.5 18t-69 49t-44 73t-15.5 90q0 49 14.5 91t42.5 73t68 48t91 17q72 0 123.5 -39t62.5 -112h-52q-9 44 -43.5 73.5t-90.5 29.5q-41 0 -71.5 -14t-51 -38.5t-31 -57.5t-10.5 -71q0 -35 11 -67.5
t32.5 -58t52.5 -41t71 -15.5q54 0 88.5 31t42.5 76h52zM38 350q0 75 28.5 141t77.5 115t115 77.5t141 28.5t141 -28.5t115 -77.5t77.5 -115t28.5 -141t-28.5 -141t-77.5 -115t-115 -77.5t-141 -28.5t-141 28.5t-115 77.5t-77.5 115t-28.5 141zM86 350q0 -65 24.5 -122
t67.5 -100t100 -67.5t122 -24.5t122 24.5t100 67.5t67.5 100t24.5 122t-24.5 122t-67.5 100t-100 67.5t-122 24.5t-122 -24.5t-100 -67.5t-67.5 -100t-24.5 -122z" />
    <glyph glyph-name="ordfeminine" unicode="&#xaa;" horiz-adv-x="344" 
d="M346 398h-93q0 15 2 34.5t5 33.5v2h-3q-12 -33 -38.5 -55.5t-71.5 -22.5q-48 0 -79.5 21t-31.5 66q0 43 34 64t86 24l98 6l2 29q0 16 -2.5 30.5t-12 25t-27 16.5t-45.5 6t-48 -4.5t-30 -7.5l-2 -49h-32l2 71q6 3 19 7t28.5 7t33 5.5t34.5 2.5q37 0 60.5 -8.5t37 -23.5
t18.5 -35t5 -42l-2 -175h53v-28zM254 542l-83 -4q-91 -5 -91 -61q0 -23 19 -39t55 -16q42 0 71 27.5t29 68.5v24z" />
    <glyph glyph-name="guillemotleft" unicode="&#xab;" horiz-adv-x="463" 
d="M235 281l134 144l34 -31l-124 -134l119 -133l-34 -32l-129 144v42zM60 281l134 144l34 -31l-124 -134l119 -133l-34 -32l-129 144v42z" />
    <glyph glyph-name="logicalnot" unicode="&#xac;" horiz-adv-x="600" 
d="M505 327h-458v48h506v-264h-48v216z" />
    <glyph glyph-name="uni00AD" unicode="&#xad;" horiz-adv-x="389" 
d="M73 286h243v-52h-243v52z" />
    <glyph glyph-name="registered" unicode="&#xae;" horiz-adv-x="800" 
d="M261 570h169q75 0 109 -31.5t34 -90.5q0 -29 -9 -50t-24 -36t-35 -23.5t-42 -12.5l130 -195h-54l-130 195h-100v-195h-48v439zM309 370h110q22 0 41.5 3.5t34 12.5t22.5 24.5t8 38.5t-9 38t-23.5 23.5t-33.5 12t-40 3.5h-110v-156zM38 350q0 75 28.5 141t77.5 115
t115 77.5t141 28.5t141 -28.5t115 -77.5t77.5 -115t28.5 -141t-28.5 -141t-77.5 -115t-115 -77.5t-141 -28.5t-141 28.5t-115 77.5t-77.5 115t-28.5 141zM86 350q0 -65 24.5 -122t67.5 -100t100 -67.5t122 -24.5t122 24.5t100 67.5t67.5 100t24.5 122t-24.5 122t-67.5 100
t-100 67.5t-122 24.5t-122 -24.5t-100 -67.5t-67.5 -100t-24.5 -122z" />
    <glyph glyph-name="macron" unicode="&#xaf;" horiz-adv-x="278" 
d="M8 719h262v-44h-262v44z" />
    <glyph glyph-name="degree" unicode="&#xb0;" horiz-adv-x="400" 
d="M57 567q0 30 11 56t30.5 45.5t45.5 30.5t56 11t56 -11t45.5 -30.5t30.5 -45.5t11 -56t-11 -56t-30.5 -45.5t-45.5 -30.5t-56 -11t-56 11t-45.5 30.5t-30.5 45.5t-11 56zM101 567q0 -42 28.5 -70.5t70.5 -28.5t70.5 28.5t28.5 70.5t-28.5 70.5t-70.5 28.5t-70.5 -28.5
t-28.5 -70.5z" />
    <glyph glyph-name="plusminus" unicode="&#xb1;" horiz-adv-x="600" 
d="M276 506h48v-184h229v-48h-229v-184h-48v184h-229v48h229v184zM47 48h506v-48h-506v48z" />
    <glyph glyph-name="uni00B2" unicode="&#xb2;" horiz-adv-x="333" 
d="M40 284v38l119 108q48 43 76.5 83.5t28.5 81.5q0 35 -23.5 57t-64.5 22q-31 0 -49 -12t-27 -26.5t-11.5 -27.5t-2.5 -15h-48q0 6 4 25t18.5 39.5t43 36.5t77.5 16q34 0 59 -9t41 -25t23.5 -36.5t7.5 -42.5q0 -25 -10 -49.5t-26.5 -48.5t-38 -47t-45.5 -45l-100 -91v-2
q10 1 20.5 3.5t22.5 2.5h182v-36h-277z" />
    <glyph glyph-name="uni00B3" unicode="&#xb3;" horiz-adv-x="333" 
d="M45 337q13 -5 44 -15t69 -10q22 0 42 6t35.5 17t24.5 26.5t9 35.5q0 50 -34.5 66.5t-109.5 16.5h-9v36h9q19 0 41 4.5t41 15t31.5 29t12.5 46.5q0 32 -22.5 47.5t-56.5 15.5q-27 0 -44 -7.5t-26 -18.5t-12.5 -23t-3.5 -21h-48q0 16 7.5 34.5t23.5 34.5t41.5 26.5
t62.5 10.5q63 0 94.5 -28t31.5 -74q0 -20 -8.5 -37t-22 -30.5t-31 -23t-35.5 -13.5v-2q16 -1 36 -6t37.5 -17t29.5 -31.5t12 -48.5q0 -56 -43 -89.5t-119 -33.5q-35 0 -64.5 6.5t-45.5 14.5v40z" />
    <glyph glyph-name="acute" unicode="&#xb4;" horiz-adv-x="278" 
d="M58 633l174 153l34 -31l-173 -149z" />
    <glyph glyph-name="uni00B5" unicode="&#xb5;" horiz-adv-x="648" 
d="M605 0h-131q0 25 2.5 55t9.5 68h-2q-18 -60 -66.5 -97.5t-112.5 -37.5q-39 0 -75 17.5t-56 49.5h-2q2 -17 2 -31.5v-29.5q0 -61 -0.5 -122t-1.5 -123h-51q0 111 0.5 220.5t0.5 219.5q0 71 1.5 140.5t2.5 140.5h-88v44h140q-1 -81 -2.5 -161t-1.5 -161q0 -79 31.5 -117.5
t101.5 -38.5q39 0 70 15.5t52 41.5t32 59t12 69l4 249h-92v44h144l-4 -470h80v-44z" />
    <glyph glyph-name="paragraph" unicode="&#xb6;" horiz-adv-x="600" 
d="M254 320q-33 0 -63 14t-52.5 39t-35.5 58t-13 71q0 48 14 85t39 62t59.5 38t76.5 13h176v-895h-48v851h-105v-851h-48v515z" />
    <glyph glyph-name="periodcentered" unicode="&#xb7;" horiz-adv-x="278" 
d="M83 292q0 23 16.5 39.5t39.5 16.5t39.5 -16.5t16.5 -39.5t-16.5 -39.5t-39.5 -16.5t-39.5 16.5t-16.5 39.5z" />
    <glyph glyph-name="cedilla" unicode="&#xb8;" horiz-adv-x="278" 
d="M167 8v-72h13q28 0 50.5 -18t22.5 -50q0 -36 -24 -58.5t-72 -22.5q-33 0 -59 6t-41 12l7 36q9 -4 33.5 -11t45.5 -7q23 0 40.5 8t17.5 32q0 37 -54 37h-20v108h40z" />
    <glyph glyph-name="uni00B9" unicode="&#xb9;" horiz-adv-x="333" 
d="M88 320h89l2 346l-117 -71l-18 31l142 84h37l-2 -390h90v-36h-223v36z" />
    <glyph glyph-name="ordmasculine" unicode="&#xba;" horiz-adv-x="344" 
d="M58 551q0 -57 29.5 -93t84.5 -36t84.5 36t29.5 93q0 54 -29.5 90.5t-84.5 36.5t-84.5 -36.5t-29.5 -90.5zM14 551q0 32 10 61t29.5 50.5t49.5 34.5t69 13t69 -13t49.5 -34.5t29.5 -50.5t10 -61q0 -33 -10 -62.5t-29.5 -51t-49.5 -34.5t-69 -13t-69 13t-49.5 34.5
t-29.5 51t-10 62.5z" />
    <glyph glyph-name="guillemotright" unicode="&#xbb;" horiz-adv-x="463" 
d="M228 239l-134 -144l-34 31l124 134l-119 133l34 32l129 -144v-42zM403 239l-134 -144l-34 31l124 134l-119 133l34 32l129 -144v-42z" />
    <glyph glyph-name="onequarter" unicode="&#xbc;" horiz-adv-x="834" 
d="M677 333q0 13 1 25t2 20h-2q-8 -18 -24 -38l-132 -175q7 0 16 1t17 1h120zM625 36h48l2 95h-198v34l200 261h45l-2 -259h84v-36h-84l-2 -95h52v-36h-145v36zM170 -30l459 784l36 -24l-459 -784zM74 320h89l2 346l-117 -71l-18 31l142 84h37l-2 -390h90v-36h-223v36z" />
    <glyph glyph-name="onehalf" unicode="&#xbd;" horiz-adv-x="834" 
d="M170 -30l459 784l36 -24l-459 -784zM74 320h89l2 346l-117 -71l-18 31l142 84h37l-2 -390h90v-36h-223v36zM527 0v38l119 108q48 43 76.5 83.5t28.5 81.5q0 35 -23.5 57t-64.5 22q-31 0 -49 -12t-27 -26.5t-11.5 -27.5t-2.5 -15h-48q0 6 4 25t18.5 39.5t43 36.5t77.5 16
q34 0 59 -9t41 -25t23.5 -36.5t7.5 -42.5q0 -25 -10 -49.5t-26.5 -48.5t-38 -47t-45.5 -45l-100 -91v-2q10 1 20.5 3.5t22.5 2.5h182v-36h-277z" />
    <glyph glyph-name="threequarters" unicode="&#xbe;" horiz-adv-x="834" 
d="M677 333q0 13 1 25t2 20h-2q-8 -18 -24 -38l-132 -175q7 0 16 1t17 1h120zM625 36h48l2 95h-198v34l200 261h45l-2 -259h84v-36h-84l-2 -95h52v-36h-145v36zM170 -30l459 784l36 -24l-459 -784zM37 337q13 -5 44 -15t69 -10q22 0 42 6t35.5 17t24.5 26.5t9 35.5
q0 50 -34.5 66.5t-109.5 16.5h-9v36h9q19 0 41 4.5t41 15t31.5 29t12.5 46.5q0 32 -22.5 47.5t-56.5 15.5q-27 0 -44 -7.5t-26 -18.5t-12.5 -23t-3.5 -21h-48q0 16 7.5 34.5t23.5 34.5t41.5 26.5t62.5 10.5q63 0 94.5 -28t31.5 -74q0 -20 -8.5 -37t-22 -30.5t-31 -23
t-35.5 -13.5v-2q16 -1 36 -6t37.5 -17t29.5 -31.5t12 -48.5q0 -56 -43 -89.5t-119 -33.5q-35 0 -64.5 6.5t-45.5 14.5v40z" />
    <glyph glyph-name="questiondown" unicode="&#xbf;" horiz-adv-x="500" 
d="M309 301l14 -12t16 -18t13.5 -26t5.5 -34q0 -31 -13.5 -51t-44.5 -45l-96 -76q-28 -23 -46 -52t-18 -65q0 -20 7 -41.5t23 -40.5t42.5 -31t64.5 -12q29 0 54.5 5.5t45.5 13.5l7 -49q-17 -7 -47.5 -12.5t-61.5 -5.5q-45 0 -80.5 13t-60 35.5t-37.5 52.5t-13 63q0 45 17 81
t57 68l90 73q23 18 38.5 34t15.5 40t-12 37l-19 21zM350 490q0 -20 -13 -34t-33 -14t-33 14t-13 34t13 34t33 14t33 -14t13 -34z" />
    <glyph glyph-name="Agrave" unicode="&#xc0;" horiz-adv-x="722" 
d="M8 44h67l270 656h56l240 -656h73v-44h-220v44h87l-91 248h-260l-99 -248h93v-44h-216v44zM380 598q-4 10 -7 19t-5 19h-2q-2 -10 -5 -19t-7 -19l-106 -262h226zM242 880l34 31l174 -153l-35 -27z" />
    <glyph glyph-name="Aacute" unicode="&#xc1;" horiz-adv-x="722" 
d="M8 44h67l270 656h56l240 -656h73v-44h-220v44h87l-91 248h-260l-99 -248h93v-44h-216v44zM380 598q-4 10 -7 19t-5 19h-2q-2 -10 -5 -19t-7 -19l-106 -262h226zM298 758l174 153l34 -31l-173 -149z" />
    <glyph glyph-name="Acircumflex" unicode="&#xc2;" horiz-adv-x="722" 
d="M8 44h67l270 656h56l240 -656h73v-44h-220v44h87l-91 248h-260l-99 -248h93v-44h-216v44zM380 598q-4 10 -7 19t-5 19h-2q-2 -10 -5 -19t-7 -19l-106 -262h226zM375 861l-117 -128l-33 30l126 138h48l122 -138l-35 -30z" />
    <glyph glyph-name="Atilde" unicode="&#xc3;" horiz-adv-x="722" 
d="M8 44h67l270 656h56l240 -656h73v-44h-220v44h87l-91 248h-260l-99 -248h93v-44h-216v44zM380 598q-4 10 -7 19t-5 19h-2q-2 -10 -5 -19t-7 -19l-106 -262h226zM539 836l-9 -15q-13 -17 -34.5 -34.5t-57.5 -17.5q-20 0 -37.5 8t-33.5 18t-30.5 18t-29.5 8
q-19 0 -32.5 -13t-21.5 -25l-7 -10l-39 26l8 13q12 18 34 37.5t57 19.5q24 0 42.5 -8t34.5 -17l30 -18.5t29 -8.5q17 0 30.5 11.5t23.5 22.5l8 11z" />
    <glyph glyph-name="Adieresis" unicode="&#xc4;" horiz-adv-x="722" 
d="M8 44h67l270 656h56l240 -656h73v-44h-220v44h87l-91 248h-260l-99 -248h93v-44h-216v44zM380 598q-4 10 -7 19t-5 19h-2q-2 -10 -5 -19t-7 -19l-106 -262h226zM435 813q0 20 12.5 34t31.5 14t31.5 -14t12.5 -34t-12.5 -34t-31.5 -14t-31.5 14t-12.5 34zM223 813
q0 20 12.5 34t31.5 14t31.5 -14t12.5 -34t-12.5 -34t-31.5 -14t-31.5 14t-12.5 34z" />
    <glyph glyph-name="Aring" unicode="&#xc5;" horiz-adv-x="722" 
d="M8 44h67l270 656h56l240 -656h73v-44h-220v44h87l-91 248h-260l-99 -248h93v-44h-216v44zM380 598q-4 10 -7 19t-5 19h-2q-2 -10 -5 -19t-7 -19l-106 -262h226zM282 821q0 38 26.5 64.5t64.5 26.5t64.5 -26.5t26.5 -64.5t-26.5 -64.5t-64.5 -26.5t-64.5 26.5t-26.5 64.5z
M322 821q0 -23 14 -39t37 -16t37 16t14 39t-14 39t-37 16t-37 -16t-14 -39z" />
    <glyph glyph-name="AE" unicode="&#xc6;" horiz-adv-x="963" 
d="M439 44h81l2 271h-248l-151 -271h88v-44h-216v44h68l372 656h443l2 -141h-48l-2 97h-250l-2 -297h246v-44h-246l-2 -271h277l6 105h49l-8 -149h-461v44zM522 359l2 297h-62l-166 -297h226z" />
    <glyph glyph-name="Ccedilla" unicode="&#xc7;" horiz-adv-x="685" 
d="M376 -10q-70 4 -129 28.5t-101.5 69.5t-66 110.5t-23.5 151.5t27 153t76 113.5t117.5 71t150.5 24.5q52 0 103 -8.5t92 -23.5l-2 -140h-52l2 105q-33 9 -68.5 14t-78.5 5q-70 0 -128 -22t-99 -63.5t-63.5 -101t-20.5 -133.5q0 -72 21.5 -129.5t61 -97t96 -60.5t126.5 -21
q43 0 79.5 5t62.5 11l1 108h52l-1 -145l-84.5 -16.5t-110.5 -10.5v-52h13q28 0 50.5 -18t22.5 -50q0 -36 -24 -58.5t-72 -22.5q-33 0 -59 6t-41 12l7 36q9 -4 33.5 -11t45.5 -7q23 0 40.5 8t17.5 32q0 37 -54 37h-20v90z" />
    <glyph glyph-name="Egrave" unicode="&#xc8;" horiz-adv-x="574" 
d="M50 44h80l4 612h-84v44h451v-140h-44v96h-267l-2 -280h243v-44h-243l-2 -288h277l8 104h48l-8 -148h-461v44zM155 880l34 31l174 -153l-35 -27z" />
    <glyph glyph-name="Eacute" unicode="&#xc9;" horiz-adv-x="574" 
d="M50 44h80l4 612h-84v44h451v-140h-44v96h-267l-2 -280h243v-44h-243l-2 -288h277l8 104h48l-8 -148h-461v44zM213 758l174 153l34 -31l-173 -149z" />
    <glyph glyph-name="Ecircumflex" unicode="&#xca;" horiz-adv-x="574" 
d="M50 44h80l4 612h-84v44h451v-140h-44v96h-267l-2 -280h243v-44h-243l-2 -288h277l8 104h48l-8 -148h-461v44zM289 861l-117 -128l-33 30l126 138h48l122 -138l-35 -30z" />
    <glyph glyph-name="Edieresis" unicode="&#xcb;" horiz-adv-x="574" 
d="M50 44h80l4 612h-84v44h451v-140h-44v96h-267l-2 -280h243v-44h-243l-2 -288h277l8 104h48l-8 -148h-461v44zM349 813q0 20 12.5 34t31.5 14t31.5 -14t12.5 -34t-12.5 -34t-31.5 -14t-31.5 14t-12.5 34zM137 813q0 20 12.5 34t31.5 14t31.5 -14t12.5 -34t-12.5 -34
t-31.5 -14t-31.5 14t-12.5 34z" />
    <glyph glyph-name="Igrave" unicode="&#xcc;" horiz-adv-x="334" 
d="M57 0v44h80l4 612h-84v44h220v-44h-80l-4 -612h84v-44h-220zM32 880l34 31l174 -153l-35 -27z" />
    <glyph glyph-name="Iacute" unicode="&#xcd;" horiz-adv-x="334" 
d="M57 0v44h80l4 612h-84v44h220v-44h-80l-4 -612h84v-44h-220zM88 758l174 153l34 -31l-173 -149z" />
    <glyph glyph-name="Icircumflex" unicode="&#xce;" horiz-adv-x="334" 
d="M57 0v44h80l4 612h-84v44h220v-44h-80l-4 -612h84v-44h-220zM171 861l-117 -128l-33 30l126 138h48l122 -138l-35 -30z" />
    <glyph glyph-name="Idieresis" unicode="&#xcf;" horiz-adv-x="334" 
d="M57 0v44h80l4 612h-84v44h220v-44h-80l-4 -612h84v-44h-220zM231 813q0 20 12.5 34t31.5 14t31.5 -14t12.5 -34t-12.5 -34t-31.5 -14t-31.5 14t-12.5 34zM19 813q0 20 12.5 34t31.5 14t31.5 -14t12.5 -34t-12.5 -34t-31.5 -14t-31.5 14t-12.5 34z" />
    <glyph glyph-name="Eth" unicode="&#xd0;" horiz-adv-x="759" 
d="M50 44h80l2 312h-88v48h88l2 252h-84v44h306q172 0 262.5 -90.5t90.5 -256.5q0 -81 -23 -146t-69 -111t-115 -71t-160 -25h-292v44zM416 356h-228l-2 -312h172q65 0 119.5 21.5t93.5 61.5t60.5 97.5t21.5 129.5q0 76 -21.5 132.5t-62 94t-98 56.5t-129.5 19h-152l-2 -252
h228v-48z" />
    <glyph glyph-name="Ntilde" unicode="&#xd1;" horiz-adv-x="796" 
d="M41 44h81l4 612h-95v44h152l426 -583q11 -17 21 -38h2l3 577h-98v44h228v-44h-77l-5 -656h-56l-427 585l-10.5 17t-9.5 19h-2l-4 -577h92v-44h-225v44zM566 836l-9 -15q-13 -17 -34.5 -34.5t-57.5 -17.5q-20 0 -37.5 8t-33.5 18t-30.5 18t-29.5 8q-19 0 -32.5 -13
t-21.5 -25l-7 -10l-39 26l8 13q12 18 34 37.5t57 19.5q24 0 42.5 -8t34.5 -17l30 -18.5t29 -8.5q17 0 30.5 11.5t23.5 22.5l8 11z" />
    <glyph glyph-name="Ograve" unicode="&#xd2;" horiz-adv-x="758" 
d="M702 350q0 -74 -18.5 -139.5t-58 -115t-100.5 -78.5t-146 -29q-86 0 -147.5 27.5t-100.5 76t-57 115t-18 143.5q0 73 18.5 139t58 115.5t100.5 78.5t146 29q86 0 147.5 -27.5t100.5 -76t57 -115t18 -143.5zM646 350q0 151 -71 232.5t-196 81.5t-196 -81.5t-71 -232.5
t71 -232.5t196 -81.5t196 81.5t71 232.5zM247 880l34 31l174 -153l-35 -27z" />
    <glyph glyph-name="Oacute" unicode="&#xd3;" horiz-adv-x="758" 
d="M702 350q0 -74 -18.5 -139.5t-58 -115t-100.5 -78.5t-146 -29q-86 0 -147.5 27.5t-100.5 76t-57 115t-18 143.5q0 73 18.5 139t58 115.5t100.5 78.5t146 29q86 0 147.5 -27.5t100.5 -76t57 -115t18 -143.5zM646 350q0 151 -71 232.5t-196 81.5t-196 -81.5t-71 -232.5
t71 -232.5t196 -81.5t196 81.5t71 232.5zM304 758l174 153l34 -31l-173 -149z" />
    <glyph glyph-name="Ocircumflex" unicode="&#xd4;" horiz-adv-x="758" 
d="M702 350q0 -74 -18.5 -139.5t-58 -115t-100.5 -78.5t-146 -29q-86 0 -147.5 27.5t-100.5 76t-57 115t-18 143.5q0 73 18.5 139t58 115.5t100.5 78.5t146 29q86 0 147.5 -27.5t100.5 -76t57 -115t18 -143.5zM646 350q0 151 -71 232.5t-196 81.5t-196 -81.5t-71 -232.5
t71 -232.5t196 -81.5t196 81.5t71 232.5zM380 861l-117 -128l-33 30l126 138h48l122 -138l-35 -30z" />
    <glyph glyph-name="Otilde" unicode="&#xd5;" horiz-adv-x="758" 
d="M702 350q0 -74 -18.5 -139.5t-58 -115t-100.5 -78.5t-146 -29q-86 0 -147.5 27.5t-100.5 76t-57 115t-18 143.5q0 73 18.5 139t58 115.5t100.5 78.5t146 29q86 0 147.5 -27.5t100.5 -76t57 -115t18 -143.5zM646 350q0 151 -71 232.5t-196 81.5t-196 -81.5t-71 -232.5
t71 -232.5t196 -81.5t196 81.5t71 232.5zM544 836l-9 -15q-13 -17 -34.5 -34.5t-57.5 -17.5q-20 0 -37.5 8t-33.5 18t-30.5 18t-29.5 8q-19 0 -32.5 -13t-21.5 -25l-7 -10l-39 26l8 13q12 18 34 37.5t57 19.5q24 0 42.5 -8t34.5 -17l30 -18.5t29 -8.5q17 0 30.5 11.5
t23.5 22.5l8 11z" />
    <glyph glyph-name="Odieresis" unicode="&#xd6;" horiz-adv-x="758" 
d="M702 350q0 -74 -18.5 -139.5t-58 -115t-100.5 -78.5t-146 -29q-86 0 -147.5 27.5t-100.5 76t-57 115t-18 143.5q0 73 18.5 139t58 115.5t100.5 78.5t146 29q86 0 147.5 -27.5t100.5 -76t57 -115t18 -143.5zM646 350q0 151 -71 232.5t-196 81.5t-196 -81.5t-71 -232.5
t71 -232.5t196 -81.5t196 81.5t71 232.5zM441 813q0 20 12.5 34t31.5 14t31.5 -14t12.5 -34t-12.5 -34t-31.5 -14t-31.5 14t-12.5 34zM229 813q0 20 12.5 34t31.5 14t31.5 -14t12.5 -34t-12.5 -34t-31.5 -14t-31.5 14t-12.5 34z" />
    <glyph glyph-name="multiply" unicode="&#xd7;" horiz-adv-x="600" 
d="M299 218l-189 -191l-36 36l190 190l-190 190l36 36l189 -191l191 191l36 -36l-190 -190l190 -190l-36 -36z" />
    <glyph glyph-name="Oslash" unicode="&#xd8;" horiz-adv-x="758" 
d="M242 70q58 -34 137 -34q125 0 196 81.5t71 232.5q0 81 -21.5 142.5t-62.5 102.5zM525 625q-62 39 -146 39q-125 0 -196 -81.5t-71 -232.5q0 -86 23.5 -149.5t67.5 -102.5zM174 50q-62 48 -90 125.5t-28 174.5q0 73 18.5 139t58 115.5t100.5 78.5t146 29q103 0 174 -41
l70 114l40 -24l-71 -117q58 -49 84 -125t26 -169q0 -74 -18.5 -139.5t-58 -115t-100.5 -78.5t-146 -29q-49 0 -90 9.5t-75 26.5l-75 -122l-40 24z" />
    <glyph glyph-name="Ugrave" unicode="&#xd9;" horiz-adv-x="760" 
d="M264 700v-44h-82q-1 -98 -2.5 -194.5t-1.5 -194.5q0 -67 9.5 -111.5t33 -71t63.5 -37.5t101 -11q62 0 100.5 14t60 45.5t29.5 80.5t9 120l4 360h-88v44h223v-44h-79l-4 -384q-1 -62 -11 -114t-38 -89.5t-78 -59t-130 -21.5q-87 0 -138.5 20.5t-78.5 56.5t-35.5 85.5
t-8.5 107.5q0 100 1.5 199t2.5 199h-89v44h227zM248 880l34 31l174 -153l-35 -27z" />
    <glyph glyph-name="Uacute" unicode="&#xda;" horiz-adv-x="760" 
d="M264 700v-44h-82q-1 -98 -2.5 -194.5t-1.5 -194.5q0 -67 9.5 -111.5t33 -71t63.5 -37.5t101 -11q62 0 100.5 14t60 45.5t29.5 80.5t9 120l4 360h-88v44h223v-44h-79l-4 -384q-1 -62 -11 -114t-38 -89.5t-78 -59t-130 -21.5q-87 0 -138.5 20.5t-78.5 56.5t-35.5 85.5
t-8.5 107.5q0 100 1.5 199t2.5 199h-89v44h227zM306 758l174 153l34 -31l-173 -149z" />
    <glyph glyph-name="Ucircumflex" unicode="&#xdb;" horiz-adv-x="760" 
d="M264 700v-44h-82q-1 -98 -2.5 -194.5t-1.5 -194.5q0 -67 9.5 -111.5t33 -71t63.5 -37.5t101 -11q62 0 100.5 14t60 45.5t29.5 80.5t9 120l4 360h-88v44h223v-44h-79l-4 -384q-1 -62 -11 -114t-38 -89.5t-78 -59t-130 -21.5q-87 0 -138.5 20.5t-78.5 56.5t-35.5 85.5
t-8.5 107.5q0 100 1.5 199t2.5 199h-89v44h227zM384 861l-117 -128l-33 30l126 138h48l122 -138l-35 -30z" />
    <glyph glyph-name="Udieresis" unicode="&#xdc;" horiz-adv-x="760" 
d="M264 700v-44h-82q-1 -98 -2.5 -194.5t-1.5 -194.5q0 -67 9.5 -111.5t33 -71t63.5 -37.5t101 -11q62 0 100.5 14t60 45.5t29.5 80.5t9 120l4 360h-88v44h223v-44h-79l-4 -384q-1 -62 -11 -114t-38 -89.5t-78 -59t-130 -21.5q-87 0 -138.5 20.5t-78.5 56.5t-35.5 85.5
t-8.5 107.5q0 100 1.5 199t2.5 199h-89v44h227zM452 813q0 20 12.5 34t31.5 14t31.5 -14t12.5 -34t-12.5 -34t-31.5 -14t-31.5 14t-12.5 34zM240 813q0 20 12.5 34t31.5 14t31.5 -14t12.5 -34t-12.5 -34t-31.5 -14t-31.5 14t-12.5 34z" />
    <glyph glyph-name="Yacute" unicode="&#xdd;" horiz-adv-x="704" 
d="M248 44h81l4 268l-252 344h-75v44h215v-44h-75q12 -12 20 -24l194 -270l195 270q8 12 20 24h-92v44h215v-44h-66l-243 -344l-4 -268h87v-44h-224v44zM311 758l174 153l34 -31l-173 -149z" />
    <glyph glyph-name="Thorn" unicode="&#xde;" 
d="M187 218h105q34 0 64 9.5t52.5 29.5t35 50t12.5 71t-14 70.5t-38 48t-57 27.5t-71 9h-87zM50 44h80l4 612h-84v44h220v-44h-80v-79h73q42 0 86 -6.5t80.5 -27t59.5 -59.5t23 -103q0 -47 -15.5 -85.5t-45 -66.5t-70.5 -43.5t-92 -15.5h-102l-1 -126h84v-44h-220v44z" />
    <glyph glyph-name="germandbls" unicode="&#xdf;" horiz-adv-x="685" 
d="M54 44h81l4 426h-100v44h100l1 48q0 33 11.5 71t38.5 70t72.5 53t115.5 21q103 0 156.5 -39.5t53.5 -107.5q0 -53 -24.5 -82t-58.5 -48l-87 -49q-29 -16 -43.5 -34t-14.5 -47q0 -26 21.5 -43.5t64.5 -31.5l81 -25q46 -14 74 -47.5t28 -78.5q0 -29 -10 -56.5t-32 -48.5
t-55.5 -34t-80.5 -13q-56 0 -91.5 7t-51.5 13v127h44v-93q19 -5 45.5 -7.5t58.5 -2.5t55 9t37.5 23t21.5 32t7 35q0 33 -16.5 54t-54.5 34l-117 40q-41 14 -61 44t-20 65q0 38 17.5 62.5t55.5 46.5l92 53q26 15 44.5 36.5t18.5 57.5q0 28 -13.5 47.5t-35.5 32.5t-50.5 19
t-58.5 6q-42 0 -76 -10.5t-58.5 -33t-38.5 -58t-14 -84.5l-4 -503h68v-44h-201v44z" />
    <glyph glyph-name="agrave" unicode="&#xe0;" horiz-adv-x="574" 
d="M522 0h-134q0 25 3 58t8 59h-2q-21 -56 -59.5 -92.5t-108.5 -36.5q-34 0 -63.5 8.5t-51.5 26t-35 44.5t-13 64q0 36 14 62.5t38.5 45t58.5 28.5t74 13l139 9q1 12 1.5 23.5t0.5 23.5q0 31 -5.5 57t-20 45t-40.5 29.5t-68 10.5q-43 0 -73.5 -7.5t-46.5 -12.5l-2 -86h-48
l2 118q20 11 64 23.5t112 12.5q52 0 86 -13.5t54 -36t28 -52.5t8 -62q0 -91 -1.5 -167.5t-2.5 -150.5h84v-44zM122 132q0 -43 30 -69.5t85 -26.5q34 0 63.5 14.5t48.5 39.5q13 17 21.5 33.5t12.5 34.5t5.5 39t1.5 48q-69 -2 -119.5 -5.5t-83.5 -14.5t-49 -33t-16 -60z
M127 755l34 31l174 -153l-35 -27z" />
    <glyph glyph-name="aacute" unicode="&#xe1;" horiz-adv-x="574" 
d="M522 0h-134q0 25 3 58t8 59h-2q-21 -56 -59.5 -92.5t-108.5 -36.5q-34 0 -63.5 8.5t-51.5 26t-35 44.5t-13 64q0 36 14 62.5t38.5 45t58.5 28.5t74 13l139 9q1 12 1.5 23.5t0.5 23.5q0 31 -5.5 57t-20 45t-40.5 29.5t-68 10.5q-43 0 -73.5 -7.5t-46.5 -12.5l-2 -86h-48
l2 118q20 11 64 23.5t112 12.5q52 0 86 -13.5t54 -36t28 -52.5t8 -62q0 -91 -1.5 -167.5t-2.5 -150.5h84v-44zM122 132q0 -43 30 -69.5t85 -26.5q34 0 63.5 14.5t48.5 39.5q13 17 21.5 33.5t12.5 34.5t5.5 39t1.5 48q-69 -2 -119.5 -5.5t-83.5 -14.5t-49 -33t-16 -60z
M178 633l174 153l34 -31l-173 -149z" />
    <glyph glyph-name="acircumflex" unicode="&#xe2;" horiz-adv-x="574" 
d="M522 0h-134q0 25 3 58t8 59h-2q-21 -56 -59.5 -92.5t-108.5 -36.5q-34 0 -63.5 8.5t-51.5 26t-35 44.5t-13 64q0 36 14 62.5t38.5 45t58.5 28.5t74 13l139 9q1 12 1.5 23.5t0.5 23.5q0 31 -5.5 57t-20 45t-40.5 29.5t-68 10.5q-43 0 -73.5 -7.5t-46.5 -12.5l-2 -86h-48
l2 118q20 11 64 23.5t112 12.5q52 0 86 -13.5t54 -36t28 -52.5t8 -62q0 -91 -1.5 -167.5t-2.5 -150.5h84v-44zM122 132q0 -43 30 -69.5t85 -26.5q34 0 63.5 14.5t48.5 39.5q13 17 21.5 33.5t12.5 34.5t5.5 39t1.5 48q-69 -2 -119.5 -5.5t-83.5 -14.5t-49 -33t-16 -60z
M259 736l-117 -128l-33 30l126 138h48l122 -138l-35 -30z" />
    <glyph glyph-name="atilde" unicode="&#xe3;" horiz-adv-x="574" 
d="M522 0h-134q0 25 3 58t8 59h-2q-21 -56 -59.5 -92.5t-108.5 -36.5q-34 0 -63.5 8.5t-51.5 26t-35 44.5t-13 64q0 36 14 62.5t38.5 45t58.5 28.5t74 13l139 9q1 12 1.5 23.5t0.5 23.5q0 31 -5.5 57t-20 45t-40.5 29.5t-68 10.5q-43 0 -73.5 -7.5t-46.5 -12.5l-2 -86h-48
l2 118q20 11 64 23.5t112 12.5q52 0 86 -13.5t54 -36t28 -52.5t8 -62q0 -91 -1.5 -167.5t-2.5 -150.5h84v-44zM122 132q0 -43 30 -69.5t85 -26.5q34 0 63.5 14.5t48.5 39.5q13 17 21.5 33.5t12.5 34.5t5.5 39t1.5 48q-69 -2 -119.5 -5.5t-83.5 -14.5t-49 -33t-16 -60z
M425 711l-9 -15q-13 -17 -34.5 -34.5t-57.5 -17.5q-20 0 -37.5 8.5t-33.5 18l-30.5 17.5t-29.5 8q-19 0 -32.5 -13t-21.5 -25l-7 -10l-39 26l8 13q12 18 34 37.5t57 19.5q24 0 42.5 -8t34.5 -17l30 -18.5t29 -8.5q17 0 30.5 11.5t23.5 22.5l8 11z" />
    <glyph glyph-name="adieresis" unicode="&#xe4;" horiz-adv-x="574" 
d="M522 0h-134q0 25 3 58t8 59h-2q-21 -56 -59.5 -92.5t-108.5 -36.5q-34 0 -63.5 8.5t-51.5 26t-35 44.5t-13 64q0 36 14 62.5t38.5 45t58.5 28.5t74 13l139 9q1 12 1.5 23.5t0.5 23.5q0 31 -5.5 57t-20 45t-40.5 29.5t-68 10.5q-43 0 -73.5 -7.5t-46.5 -12.5l-2 -86h-48
l2 118q20 11 64 23.5t112 12.5q52 0 86 -13.5t54 -36t28 -52.5t8 -62q0 -91 -1.5 -167.5t-2.5 -150.5h84v-44zM122 132q0 -43 30 -69.5t85 -26.5q34 0 63.5 14.5t48.5 39.5q13 17 21.5 33.5t12.5 34.5t5.5 39t1.5 48q-69 -2 -119.5 -5.5t-83.5 -14.5t-49 -33t-16 -60z
M321 688q0 20 12.5 34t31.5 14t31.5 -14t12.5 -34t-12.5 -34t-31.5 -14t-31.5 14t-12.5 34zM109 688q0 20 12.5 34t31.5 14t31.5 -14t12.5 -34t-12.5 -34t-31.5 -14t-31.5 14t-12.5 34z" />
    <glyph glyph-name="aring" unicode="&#xe5;" horiz-adv-x="574" 
d="M522 0h-134q0 25 3 58t8 59h-2q-21 -56 -59.5 -92.5t-108.5 -36.5q-34 0 -63.5 8.5t-51.5 26t-35 44.5t-13 64q0 36 14 62.5t38.5 45t58.5 28.5t74 13l139 9q1 12 1.5 23.5t0.5 23.5q0 31 -5.5 57t-20 45t-40.5 29.5t-68 10.5q-43 0 -73.5 -7.5t-46.5 -12.5l-2 -86h-48
l2 118q20 11 64 23.5t112 12.5q52 0 86 -13.5t54 -36t28 -52.5t8 -62q0 -91 -1.5 -167.5t-2.5 -150.5h84v-44zM122 132q0 -43 30 -69.5t85 -26.5q34 0 63.5 14.5t48.5 39.5q13 17 21.5 33.5t12.5 34.5t5.5 39t1.5 48q-69 -2 -119.5 -5.5t-83.5 -14.5t-49 -33t-16 -60z
M166 696q0 38 26.5 64.5t64.5 26.5t64.5 -26.5t26.5 -64.5t-26.5 -64.5t-64.5 -26.5t-64.5 26.5t-26.5 64.5zM206 696q0 -23 14 -39t37 -16t37 16t14 39t-14 39t-37 16t-37 -16t-14 -39z" />
    <glyph glyph-name="ae" unicode="&#xe6;" horiz-adv-x="870" 
d="M456 250v-48q0 -82 49 -124t130 -42q47 0 86.5 11.5t65.5 26.5v-52q-18 -11 -60.5 -22.5t-98.5 -11.5q-75 0 -130.5 35t-71.5 97h-2q-7 -28 -23 -52t-40 -42t-56 -28t-70 -10q-32 0 -62 9t-54 27t-38.5 46t-14.5 67q0 64 49.5 105t156.5 46l132 6v35q0 74 -36.5 111.5
t-115.5 37.5q-43 0 -73.5 -7.5t-46.5 -12.5l-2 -86h-48l2 118q10 5 29 11.5t43.5 12t51.5 9t52 3.5q66 0 111.5 -28.5t64.5 -77.5q8 18 22 36.5t34.5 34t49 25.5t66.5 10q63 0 103.5 -22t64.5 -59.5t33 -88t9 -106.5h-362zM404 250l-121 -6q-33 -2 -62 -7.5t-51 -17.5
t-35 -31.5t-13 -49.5q0 -20 7.5 -38.5t23 -32.5t39 -22.5t55.5 -8.5q40 0 69.5 16.5t49 41t29 54t9.5 56.5v46zM762 294q0 33 -8 66t-26 59t-48 42.5t-74 16.5q-78 0 -114 -49.5t-36 -134.5h306z" />
    <glyph glyph-name="ccedilla" unicode="&#xe7;" horiz-adv-x="519" 
d="M417 462q-20 7 -46.5 11.5t-64.5 4.5q-49 0 -85.5 -16.5t-60.5 -45.5t-36 -69.5t-12 -89.5t12 -89.5t36 -70t60.5 -45.5t85.5 -16q54 0 92 8.5t64 21.5v-51q-24 -11 -60 -18.5t-84 -8.5v-52h13q28 0 50.5 -18t22.5 -50q0 -36 -24 -58.5t-72 -22.5q-33 0 -59 6t-41 12
l7 36q9 -4 33.5 -11t45.5 -7q23 0 40.5 8t17.5 32q0 37 -54 37h-20v88q-56 4 -98 27t-69.5 59.5t-41 83.5t-13.5 99q0 55 15.5 104t46 85.5t77 58t109.5 21.5q59 0 95.5 -8.5t65.5 -18.5v-125h-48v88z" />
    <glyph glyph-name="egrave" unicode="&#xe8;" horiz-adv-x="537" 
d="M433 306q0 34 -9.5 65.5t-29.5 55t-50.5 37.5t-72.5 14q-48 0 -80 -18.5t-51.5 -45t-27.5 -56t-8 -52.5h329zM464 27q-12 -7 -30 -14t-39.5 -12.5t-46 -9t-48.5 -3.5q-63 0 -110 19.5t-78.5 55.5t-47.5 87.5t-16 115.5q0 53 15 100.5t43.5 83t70.5 56t97 20.5
q63 0 104.5 -23.5t66 -61.5t34.5 -85t10 -94h-385q2 -110 52 -168t152 -58q46 0 86 13t72 30zM152 755l34 31l174 -153l-35 -27z" />
    <glyph glyph-name="eacute" unicode="&#xe9;" horiz-adv-x="537" 
d="M433 306q0 34 -9.5 65.5t-29.5 55t-50.5 37.5t-72.5 14q-48 0 -80 -18.5t-51.5 -45t-27.5 -56t-8 -52.5h329zM464 27q-12 -7 -30 -14t-39.5 -12.5t-46 -9t-48.5 -3.5q-63 0 -110 19.5t-78.5 55.5t-47.5 87.5t-16 115.5q0 53 15 100.5t43.5 83t70.5 56t97 20.5
q63 0 104.5 -23.5t66 -61.5t34.5 -85t10 -94h-385q2 -110 52 -168t152 -58q46 0 86 13t72 30zM208 633l174 153l34 -31l-173 -149z" />
    <glyph glyph-name="ecircumflex" unicode="&#xea;" horiz-adv-x="537" 
d="M433 306q0 34 -9.5 65.5t-29.5 55t-50.5 37.5t-72.5 14q-48 0 -80 -18.5t-51.5 -45t-27.5 -56t-8 -52.5h329zM464 27q-12 -7 -30 -14t-39.5 -12.5t-46 -9t-48.5 -3.5q-63 0 -110 19.5t-78.5 55.5t-47.5 87.5t-16 115.5q0 53 15 100.5t43.5 83t70.5 56t97 20.5
q63 0 104.5 -23.5t66 -61.5t34.5 -85t10 -94h-385q2 -110 52 -168t152 -58q46 0 86 13t72 30zM283 736l-117 -128l-33 30l126 138h48l122 -138l-35 -30z" />
    <glyph glyph-name="edieresis" unicode="&#xeb;" horiz-adv-x="537" 
d="M433 306q0 34 -9.5 65.5t-29.5 55t-50.5 37.5t-72.5 14q-48 0 -80 -18.5t-51.5 -45t-27.5 -56t-8 -52.5h329zM464 27q-12 -7 -30 -14t-39.5 -12.5t-46 -9t-48.5 -3.5q-63 0 -110 19.5t-78.5 55.5t-47.5 87.5t-16 115.5q0 53 15 100.5t43.5 83t70.5 56t97 20.5
q63 0 104.5 -23.5t66 -61.5t34.5 -85t10 -94h-385q2 -110 52 -168t152 -58q46 0 86 13t72 30zM343 688q0 20 12.5 34t31.5 14t31.5 -14t12.5 -34t-12.5 -34t-31.5 -14t-31.5 14t-12.5 34zM131 688q0 20 12.5 34t31.5 14t31.5 -14t12.5 -34t-12.5 -34t-31.5 -14t-31.5 14
t-12.5 34z" />
    <glyph glyph-name="igrave" unicode="&#xec;" horiz-adv-x="296" 
d="M32 44h88l3 426h-99v44h151l-3 -470h92v-44h-232v44zM12 755l34 31l174 -153l-35 -27z" />
    <glyph glyph-name="iacute" unicode="&#xed;" horiz-adv-x="296" 
d="M32 44h88l3 426h-99v44h151l-3 -470h92v-44h-232v44zM58 633l174 153l34 -31l-173 -149z" />
    <glyph glyph-name="icircumflex" unicode="&#xee;" horiz-adv-x="296" 
d="M32 44h88l3 426h-99v44h151l-3 -470h92v-44h-232v44zM141 736l-117 -128l-33 30l126 138h48l122 -138l-35 -30z" />
    <glyph glyph-name="idieresis" unicode="&#xef;" horiz-adv-x="296" 
d="M32 44h88l3 426h-99v44h151l-3 -470h92v-44h-232v44zM201 688q0 20 12.5 34t31.5 14t31.5 -14t12.5 -34t-12.5 -34t-31.5 -14t-31.5 14t-12.5 34zM-11 688q0 20 12.5 34t31.5 14t31.5 -14t12.5 -34t-12.5 -34t-31.5 -14t-31.5 14t-12.5 34z" />
    <glyph glyph-name="eth" unicode="&#xf0;" horiz-adv-x="574" 
d="M104 257q0 -49 11.5 -89.5t35 -70t57.5 -45.5t79 -16t79 16t57.5 45.5t35 70t11.5 89.5t-11.5 89.5t-35 69.5t-57.5 45.5t-79 16.5t-79 -16.5t-57.5 -45.5t-35 -69.5t-11.5 -89.5zM164 641l92 55q-20 18 -39 31.5l-36 24.5l45 25q39 -27 70 -56l92 56l30 -30l-90 -55
l28 -30q40 -43 71.5 -88t53.5 -95.5t33.5 -108t11.5 -124.5q0 -51 -15 -97.5t-45 -82.5t-75 -57t-104 -21t-104 21.5t-75 58t-45 85.5t-15 104t15 104t45 85.5t75 58t104 21.5q44 0 81 -14t66 -44h2q-32 68 -72 116t-77 83l-93 -56z" />
    <glyph glyph-name="ntilde" unicode="&#xf1;" horiz-adv-x="648" 
d="M44 44h77l2 426h-90v44h143q0 -25 -2.5 -55t-9.5 -68h2q18 60 65 97.5t123 37.5q36 0 67.5 -9.5t55 -32.5t37 -61.5t13.5 -97.5q0 -71 -1.5 -140.5t-2.5 -140.5h81v-44h-210v44h77q1 70 2.5 139t1.5 139q0 79 -31.5 117.5t-101.5 38.5q-39 0 -70 -16t-52.5 -42.5t-33 -61
t-11.5 -70.5l-2 -244h81v-44h-210v44zM491 711l-9 -15q-13 -17 -34.5 -34.5t-57.5 -17.5q-20 0 -37.5 8.5t-33.5 18l-30.5 17.5t-29.5 8q-19 0 -32.5 -13t-21.5 -25l-7 -10l-39 26l8 13q12 18 34 37.5t57 19.5q24 0 42.5 -8t34.5 -17l30 -18.5t29 -8.5q17 0 30.5 11.5
t23.5 22.5l8 11z" />
    <glyph glyph-name="ograve" unicode="&#xf2;" horiz-adv-x="574" 
d="M104 257q0 -49 11.5 -89.5t35 -70t57.5 -45.5t79 -16t79 16t57.5 45.5t35 70t11.5 89.5t-11.5 89.5t-35 69.5t-57.5 45.5t-79 16.5t-79 -16.5t-57.5 -45.5t-35 -69.5t-11.5 -89.5zM48 257q0 55 15 104t45 85.5t75 58t104 21.5t104 -21.5t75 -58t45 -85.5t15 -104
t-15 -104t-45 -85.5t-75 -58t-104 -21.5t-104 21.5t-75 58t-45 85.5t-15 104zM159 755l34 31l174 -153l-35 -27z" />
    <glyph glyph-name="oacute" unicode="&#xf3;" horiz-adv-x="574" 
d="M104 257q0 -49 11.5 -89.5t35 -70t57.5 -45.5t79 -16t79 16t57.5 45.5t35 70t11.5 89.5t-11.5 89.5t-35 69.5t-57.5 45.5t-79 16.5t-79 -16.5t-57.5 -45.5t-35 -69.5t-11.5 -89.5zM48 257q0 55 15 104t45 85.5t75 58t104 21.5t104 -21.5t75 -58t45 -85.5t15 -104
t-15 -104t-45 -85.5t-75 -58t-104 -21.5t-104 21.5t-75 58t-45 85.5t-15 104zM208 633l174 153l34 -31l-173 -149z" />
    <glyph glyph-name="ocircumflex" unicode="&#xf4;" horiz-adv-x="574" 
d="M104 257q0 -49 11.5 -89.5t35 -70t57.5 -45.5t79 -16t79 16t57.5 45.5t35 70t11.5 89.5t-11.5 89.5t-35 69.5t-57.5 45.5t-79 16.5t-79 -16.5t-57.5 -45.5t-35 -69.5t-11.5 -89.5zM48 257q0 55 15 104t45 85.5t75 58t104 21.5t104 -21.5t75 -58t45 -85.5t15 -104
t-15 -104t-45 -85.5t-75 -58t-104 -21.5t-104 21.5t-75 58t-45 85.5t-15 104zM291 736l-117 -128l-33 30l126 138h48l122 -138l-35 -30z" />
    <glyph glyph-name="otilde" unicode="&#xf5;" horiz-adv-x="574" 
d="M104 257q0 -49 11.5 -89.5t35 -70t57.5 -45.5t79 -16t79 16t57.5 45.5t35 70t11.5 89.5t-11.5 89.5t-35 69.5t-57.5 45.5t-79 16.5t-79 -16.5t-57.5 -45.5t-35 -69.5t-11.5 -89.5zM48 257q0 55 15 104t45 85.5t75 58t104 21.5t104 -21.5t75 -58t45 -85.5t15 -104
t-15 -104t-45 -85.5t-75 -58t-104 -21.5t-104 21.5t-75 58t-45 85.5t-15 104zM455 711l-9 -15q-13 -17 -34.5 -34.5t-57.5 -17.5q-20 0 -37.5 8.5t-33.5 18l-30.5 17.5t-29.5 8q-19 0 -32.5 -13t-21.5 -25l-7 -10l-39 26l8 13q12 18 34 37.5t57 19.5q24 0 42.5 -8t34.5 -17
l30 -18.5t29 -8.5q17 0 30.5 11.5t23.5 22.5l8 11z" />
    <glyph glyph-name="odieresis" unicode="&#xf6;" horiz-adv-x="574" 
d="M104 257q0 -49 11.5 -89.5t35 -70t57.5 -45.5t79 -16t79 16t57.5 45.5t35 70t11.5 89.5t-11.5 89.5t-35 69.5t-57.5 45.5t-79 16.5t-79 -16.5t-57.5 -45.5t-35 -69.5t-11.5 -89.5zM48 257q0 55 15 104t45 85.5t75 58t104 21.5t104 -21.5t75 -58t45 -85.5t15 -104
t-15 -104t-45 -85.5t-75 -58t-104 -21.5t-104 21.5t-75 58t-45 85.5t-15 104zM351 688q0 20 12.5 34t31.5 14t31.5 -14t12.5 -34t-12.5 -34t-31.5 -14t-31.5 14t-12.5 34zM139 688q0 20 12.5 34t31.5 14t31.5 -14t12.5 -34t-12.5 -34t-31.5 -14t-31.5 14t-12.5 34z" />
    <glyph glyph-name="divide" unicode="&#xf7;" horiz-adv-x="600" 
d="M47 277h506v-48h-506v48zM244 462q0 23 16.5 39.5t39.5 16.5t39.5 -16.5t16.5 -39.5t-16.5 -39.5t-39.5 -16.5t-39.5 16.5t-16.5 39.5zM244 44q0 23 16.5 39.5t39.5 16.5t39.5 -16.5t16.5 -39.5t-16.5 -39.5t-39.5 -16.5t-39.5 16.5t-16.5 39.5z" />
    <glyph glyph-name="oslash" unicode="&#xf8;" horiz-adv-x="574" 
d="M382 452q-38 26 -95 26q-45 0 -79 -16.5t-57.5 -45.5t-35 -69.5t-11.5 -89.5q0 -56 15 -100t44 -73zM136 39q-44 38 -66 94.5t-22 123.5q0 55 15 104t45 85.5t75 58t104 21.5q36 0 66.5 -8t54.5 -22l61 102l36 -24l-62 -104q42 -36 62.5 -91.5t20.5 -121.5
q0 -55 -15 -104t-45 -85.5t-75 -58t-104 -21.5q-34 0 -62.5 7t-52.5 20l-60 -100l-36 24zM198 59q36 -23 89 -23q45 0 79 16t57.5 45.5t35 70t11.5 89.5q0 53 -13.5 95.5t-40.5 71.5z" />
    <glyph glyph-name="ugrave" unicode="&#xf9;" horiz-adv-x="648" 
d="M178 514q-1 -81 -2.5 -161t-1.5 -161q0 -79 31.5 -117.5t101.5 -38.5q79 0 121.5 55.5t44.5 156.5l4 222h-92v44h144l-4 -470h80v-44h-131q0 25 2.5 55t9.5 68h-2q-18 -60 -66.5 -97.5t-112.5 -37.5q-39 0 -72.5 9.5t-58 33t-38.5 62t-14 96.5q0 71 1.5 140.5t2.5 140.5
h-88v44h140zM194 755l34 31l174 -153l-35 -27z" />
    <glyph glyph-name="uacute" unicode="&#xfa;" horiz-adv-x="648" 
d="M178 514q-1 -81 -2.5 -161t-1.5 -161q0 -79 31.5 -117.5t101.5 -38.5q79 0 121.5 55.5t44.5 156.5l4 222h-92v44h144l-4 -470h80v-44h-131q0 25 2.5 55t9.5 68h-2q-18 -60 -66.5 -97.5t-112.5 -37.5q-39 0 -72.5 9.5t-58 33t-38.5 62t-14 96.5q0 71 1.5 140.5t2.5 140.5
h-88v44h140zM244 633l174 153l34 -31l-173 -149z" />
    <glyph glyph-name="ucircumflex" unicode="&#xfb;" horiz-adv-x="648" 
d="M178 514q-1 -81 -2.5 -161t-1.5 -161q0 -79 31.5 -117.5t101.5 -38.5q79 0 121.5 55.5t44.5 156.5l4 222h-92v44h144l-4 -470h80v-44h-131q0 25 2.5 55t9.5 68h-2q-18 -60 -66.5 -97.5t-112.5 -37.5q-39 0 -72.5 9.5t-58 33t-38.5 62t-14 96.5q0 71 1.5 140.5t2.5 140.5
h-88v44h140zM326 736l-117 -128l-33 30l126 138h48l122 -138l-35 -30z" />
    <glyph glyph-name="udieresis" unicode="&#xfc;" horiz-adv-x="648" 
d="M178 514q-1 -81 -2.5 -161t-1.5 -161q0 -79 31.5 -117.5t101.5 -38.5q79 0 121.5 55.5t44.5 156.5l4 222h-92v44h144l-4 -470h80v-44h-131q0 25 2.5 55t9.5 68h-2q-18 -60 -66.5 -97.5t-112.5 -37.5q-39 0 -72.5 9.5t-58 33t-38.5 62t-14 96.5q0 71 1.5 140.5t2.5 140.5
h-88v44h140zM376 688q0 20 12.5 34t31.5 14t31.5 -14t12.5 -34t-12.5 -34t-31.5 -14t-31.5 14t-12.5 34zM164 688q0 20 12.5 34t31.5 14t31.5 -14t12.5 -34t-12.5 -34t-31.5 -14t-31.5 14t-12.5 34z" />
    <glyph glyph-name="yacute" unicode="&#xfd;" 
d="M206 514v-44h-73l139 -379q6 -15 11 -38h2q1 7 3.5 17.5t5.5 18.5l133 381h-77v44h191v-44h-62l-179 -501q-21 -59 -43.5 -102.5t-50 -72.5t-62 -43t-79.5 -14q-19 0 -33 2.5t-27 5.5v49q9 -2 26.5 -5.5t36.5 -3.5q54 0 90 26.5t59 82.5l39 93l-184 483h-67v44h201z
M198 633l174 153l34 -31l-173 -149z" />
    <glyph glyph-name="thorn" unicode="&#xfe;" horiz-adv-x="611" 
d="M36 -207h83l4 932h-96v44h148l-2 -263q0 -21 -1 -46.5t-1 -51.5h2q26 53 66.5 85.5t112.5 32.5q52 0 92 -19t66 -51t39.5 -76t13.5 -93q0 -62 -15 -116t-47 -95t-82.5 -64.5t-121.5 -23.5q-41 0 -72.5 5t-51.5 13l-2 -213h93v-44h-228v44zM173 58q26 -12 57 -19t69 -7
q54 0 93.5 18.5t65 50.5t37.5 75.5t12 94.5q0 43 -9 81t-28.5 66t-51 44t-76.5 16q-36 0 -67 -15.5t-53 -41.5t-35 -59.5t-13 -70.5z" />
    <glyph glyph-name="ydieresis" unicode="&#xff;" 
d="M206 514v-44h-73l139 -379q6 -15 11 -38h2q1 7 3.5 17.5t5.5 18.5l133 381h-77v44h191v-44h-62l-179 -501q-21 -59 -43.5 -102.5t-50 -72.5t-62 -43t-79.5 -14q-19 0 -33 2.5t-27 5.5v49q9 -2 26.5 -5.5t36.5 -3.5q54 0 90 26.5t59 82.5l39 93l-184 483h-67v44h201z
M341 688q0 20 12.5 34t31.5 14t31.5 -14t12.5 -34t-12.5 -34t-31.5 -14t-31.5 14t-12.5 34zM129 688q0 20 12.5 34t31.5 14t31.5 -14t12.5 -34t-12.5 -34t-31.5 -14t-31.5 14t-12.5 34z" />
    <glyph glyph-name="dotlessi" unicode="&#x131;" horiz-adv-x="296" 
d="M32 44h88l3 426h-99v44h151l-3 -470h92v-44h-232v44z" />
    <glyph glyph-name="OE" unicode="&#x152;" horiz-adv-x="1019" 
d="M869 332h-260l-2 -288h294l8 104h48l-8 -148h-371l-44.5 -4l-43.5 -4q-21 -2 -42.5 -3t-45.5 -1q-85 0 -149.5 24.5t-108 70.5t-66 112t-22.5 150q0 91 27 160t75 115t115 69t147 23q41 0 79 -4t76 -9h364v-139h-44v95h-284l-2 -279h260v-44zM555 655q-29 2 -61 5.5
t-76 3.5q-71 0 -128 -21.5t-96.5 -62.5t-60.5 -100t-21 -134q0 -78 21.5 -136t61.5 -97t96 -58t125 -19q42 0 75.5 1.5t59.5 6.5z" />
    <glyph glyph-name="oe" unicode="&#x153;" horiz-adv-x="907" 
d="M493 262v-61q0 -43 14.5 -74t38.5 -51.5t55 -30t64 -9.5q53 0 94.5 12.5t70.5 24.5v-48q-29 -12 -71 -24.5t-99 -12.5q-32 0 -64 8t-59 24.5t-46 41.5t-26 60h-2q-6 -25 -21 -49t-38 -43t-53.5 -30.5t-67.5 -11.5q-57 0 -101 21.5t-74 58t-45 85.5t-15 104t15 104
t45 85.5t75 58t104 21.5q71 0 114.5 -32t68.5 -85h2q8 21 23 42t37 37.5t52 27t69 10.5q63 0 103 -23t63 -60.5t31.5 -84.5t8.5 -96h-366zM441 305q0 83 -40 128t-118 45q-44 0 -77 -16.5t-56 -45.5t-34.5 -69.5t-11.5 -89.5t11.5 -89.5t34 -70t55.5 -45.5t75 -16
q37 0 66.5 11.5t50.5 35.5t32.5 61.5t11.5 90.5v70zM803 306q0 34 -8.5 65.5t-26.5 55t-46.5 37.5t-68.5 14q-71 0 -115.5 -43t-44.5 -129h310z" />
    <glyph glyph-name="Scaron" unicode="&#x160;" horiz-adv-x="574" 
d="M125 158l2 -96q28 -11 69 -18.5t81 -7.5q50 0 85.5 12t58 32t33 46t10.5 55q0 53 -28.5 81.5t-71.5 45t-93 28t-93 31t-71.5 54t-28.5 96.5q0 35 13.5 70t41.5 62.5t71.5 45t104.5 17.5q60 0 106.5 -10.5t75.5 -21.5l2 -128h-48l-2 92q-26 9 -59.5 14.5t-78.5 5.5
q-41 0 -72.5 -11t-53.5 -29.5t-33.5 -43.5t-11.5 -52q0 -53 28.5 -81t71.5 -44.5t93 -28t93 -32.5t71.5 -58t28.5 -104q0 -42 -16 -77.5t-47 -61t-75 -39.5t-100 -14q-29 0 -58 3t-56 8t-51 10.5t-42 11.5l-2 137h52zM159 876l35 30l111 -128l117 128l33 -30l-126 -138h-48z
" />
    <glyph glyph-name="scaron" unicode="&#x161;" horiz-adv-x="481" 
d="M103 146l2 -87q17 -11 52 -19t73 -8q37 0 62.5 9.5t41.5 24.5t23 33.5t7 35.5q0 33 -18.5 55.5t-69.5 34.5l-88 21q-63 15 -99.5 47t-36.5 89q0 32 13 58.5t36.5 45.5t56.5 29.5t73 10.5q48 0 86 -9t70 -23l2 -117h-48l-2 83q-17 9 -42 15.5t-63 6.5q-61 0 -93.5 -25.5
t-32.5 -69.5q0 -38 21 -61t66 -33l95 -21q67 -14 98.5 -45t31.5 -85q0 -79 -53.5 -116.5t-140.5 -37.5q-55 0 -98.5 10t-69.5 24l-4 124h49zM91 746l35 30l111 -128l117 128l33 -30l-126 -138h-48z" />
    <glyph glyph-name="Ydieresis" unicode="&#x178;" horiz-adv-x="704" 
d="M248 44h81l4 268l-252 344h-75v44h215v-44h-75q12 -12 20 -24l194 -270l195 270q8 12 20 24h-92v44h215v-44h-66l-243 -344l-4 -268h87v-44h-224v44zM422 813q0 20 12.5 34t31.5 14t31.5 -14t12.5 -34t-12.5 -34t-31.5 -14t-31.5 14t-12.5 34zM210 813q0 20 12.5 34
t31.5 14t31.5 -14t12.5 -34t-12.5 -34t-31.5 -14t-31.5 14t-12.5 34z" />
    <glyph glyph-name="Zcaron" unicode="&#x17d;" horiz-adv-x="648" 
d="M61 44l444 588q9 12 21 24h-401l-4 -108h-48l4 152h510v-44l-440 -588q-9 -12 -21 -24h408l4 111h48l-4 -155h-521v44zM176 876l35 30l111 -128l117 128l33 -30l-126 -138h-48z" />
    <glyph glyph-name="zcaron" unicode="&#x17e;" horiz-adv-x="519" 
d="M56 44l325 398q13 16 26 28h-285l-4 -90h-49l6 134h393v-44l-325 -398q-13 -16 -26 -28h297l6 95h49l-8 -139h-405v44zM111 746l35 30l111 -128l117 128l33 -30l-126 -138h-48z" />
    <glyph glyph-name="florin" unicode="&#x192;" 
d="M108 411h118l7 88q3 40 14.5 78t35 67.5t61.5 47.5t94 18q26 0 46 -3t37 -6l-2 -47q-15 4 -38 8t-46 4q-42 0 -70.5 -14.5t-46 -38t-26 -54t-11.5 -61.5l-7 -87h157v-44h-160l-23 -298q-5 -60 -17 -108.5t-35 -83t-58 -53.5t-85 -19q-24 0 -42.5 5.5t-29.5 9.5l6 47
q10 -5 26 -9.5t42 -4.5q30 0 54.5 11.5t42.5 36.5t29.5 64.5t16.5 95.5l24 306h-114v44z" />
    <glyph glyph-name="uni0237" unicode="&#x237;" horiz-adv-x="315" 
d="M49 514h151l-5 -466q-1 -49 -9.5 -97t-33.5 -90t-71.5 -74.5t-123.5 -49.5l-8 45q67 14 105.5 45t58.5 72t25.5 89.5t5.5 98.5l4 383h-99v44z" />
    <glyph glyph-name="circumflex" unicode="&#x2c6;" horiz-adv-x="278" 
d="M141 736l-117 -128l-33 30l126 138h48l122 -138l-35 -30z" />
    <glyph glyph-name="tilde" unicode="&#x2dc;" horiz-adv-x="278" 
d="M305 711l-9 -15q-13 -17 -34.5 -34.5t-57.5 -17.5q-20 0 -37.5 8.5t-33.5 18l-30.5 17.5t-29.5 8q-19 0 -32.5 -13t-21.5 -25l-7 -10l-39 26l8 13q12 18 34 37.5t57 19.5q24 0 42.5 -8t34.5 -17l30 -18.5t29 -8.5q17 0 30.5 11.5t23.5 22.5l8 11z" />
    <glyph glyph-name="endash" unicode="&#x2013;" horiz-adv-x="500" 
d="M0 284h500v-48h-500v48z" />
    <glyph glyph-name="emdash" unicode="&#x2014;" horiz-adv-x="1000" 
d="M0 284h1000v-48h-1000v48z" />
    <glyph glyph-name="quoteleft" unicode="&#x2018;" horiz-adv-x="278" 
d="M191 753q-8 -6 -16 -17t-15.5 -24t-12 -26t-4.5 -25q0 -17 7 -28t15 -20.5l15 -18.5t7 -22q0 -14 -12 -26.5t-33 -12.5q-19 0 -37 19t-18 55q0 14 3 32t10 37.5t17.5 38.5t25.5 36l24 26z" />
    <glyph glyph-name="quoteright" unicode="&#x2019;" horiz-adv-x="278" 
d="M87 557q7 6 15.5 17t16 23.5t12 26t4.5 25.5q0 17 -7 28t-15 20.5l-15 18.5t-7 22q0 14 12 26.5t33 12.5q19 0 37 -19t18 -55q0 -14 -3 -32t-10 -37.5t-17.5 -39t-25.5 -35.5l-24 -26z" />
    <glyph glyph-name="quotesinglbase" unicode="&#x201a;" horiz-adv-x="278" 
d="M87 -136q7 6 15.5 17t16 23.5t12 26t4.5 25.5q0 17 -7 28t-15 20.5l-15 18.5t-7 22q0 14 12 26.5t33 12.5q19 0 37 -19t18 -55q0 -14 -3.5 -32.5t-10 -38t-17 -38.5t-25.5 -35l-24 -26z" />
    <glyph glyph-name="quotedblleft" unicode="&#x201c;" horiz-adv-x="389" 
d="M329 753q-8 -6 -16 -17t-15.5 -24t-12 -26t-4.5 -25q0 -17 7 -28t15 -20.5l15 -18.5t7 -22q0 -14 -12 -26.5t-33 -12.5q-19 0 -37 19t-18 55q0 14 3 32t10 37.5t17.5 38.5t25.5 36l24 26zM164 753q-8 -6 -16 -17t-15.5 -24t-12 -26t-4.5 -25q0 -17 7 -28t15 -20.5
l15 -18.5t7 -22q0 -14 -12 -26.5t-33 -12.5q-19 0 -37 19t-18 55q0 14 3 32t10 37.5t17.5 38.5t25.5 36l24 26z" />
    <glyph glyph-name="quotedblright" unicode="&#x201d;" horiz-adv-x="389" 
d="M225 557q7 6 15.5 17t16 23.5t12 26t4.5 25.5q0 17 -7 28t-15 20.5l-15 18.5t-7 22q0 14 12 26.5t33 12.5q19 0 37 -19t18 -55q0 -14 -3 -32t-10 -37.5t-17.5 -39t-25.5 -35.5l-24 -26zM60 557q7 6 15.5 17t16 23.5t12 26t4.5 25.5q0 17 -7 28t-15 20.5l-15 18.5t-7 22
q0 14 12 26.5t33 12.5q19 0 37 -19t18 -55q0 -14 -3 -32t-10 -37.5t-17.5 -39t-25.5 -35.5l-24 -26z" />
    <glyph glyph-name="quotedblbase" unicode="&#x201e;" horiz-adv-x="389" 
d="M225 -136q7 6 15.5 17t16 23.5t12 26t4.5 25.5q0 17 -7 28t-15 20.5l-15 18.5t-7 22q0 14 12 26.5t33 12.5q19 0 37 -19t18 -55q0 -14 -3.5 -32.5t-10 -38t-17 -38.5t-25.5 -35l-24 -26zM60 -136q7 6 15.5 17t16 23.5t12 26t4.5 25.5q0 17 -7 28t-15 20.5l-15 18.5t-7 22
q0 14 12 26.5t33 12.5q19 0 37 -19t18 -55q0 -14 -3.5 -32.5t-10 -38t-17 -38.5t-25.5 -35l-24 -26z" />
    <glyph glyph-name="dagger" unicode="&#x2020;" 
d="M306 700l-2 -231h200v-44h-200l-2 -620h-52l2 620h-200v44h200l2 231h52z" />
    <glyph glyph-name="daggerdbl" unicode="&#x2021;" 
d="M52 96h199l1 329h-200v44h200l2 231h52l-2 -231h200v-44h-200l-1 -329h201v-44h-201l-1 -247h-52l1 247h-199v44z" />
    <glyph glyph-name="bullet" unicode="&#x2022;" horiz-adv-x="500" 
d="M75 350q0 36 13.5 68t37.5 56t56 37.5t68 13.5t68 -13.5t56 -37.5t37.5 -56t13.5 -68t-13.5 -68t-37.5 -56t-56 -37.5t-68 -13.5t-68 13.5t-56 37.5t-37.5 56t-13.5 68z" />
    <glyph glyph-name="ellipsis" unicode="&#x2026;" horiz-adv-x="1000" 
d="M121 36q0 20 13.5 34t32.5 14t32.5 -14t13.5 -34t-13.5 -34t-32.5 -14t-32.5 14t-13.5 34zM454 36q0 20 13.5 34t32.5 14t32.5 -14t13.5 -34t-13.5 -34t-32.5 -14t-32.5 14t-13.5 34zM787 36q0 20 13.5 34t32.5 14t32.5 -14t13.5 -34t-13.5 -34t-32.5 -14t-32.5 14
t-13.5 34z" />
    <glyph glyph-name="perthousand" unicode="&#x2030;" horiz-adv-x="1167" 
d="M982 308q66 0 107 -42.5t41 -114.5q0 -39 -12 -69t-32 -50.5t-47.5 -31t-58.5 -10.5q-35 0 -63 12t-47.5 33t-30 50t-10.5 64q0 34 11 63t31.5 50.5t48.5 33.5t62 12zM980 268q-46 0 -74.5 -31t-28.5 -88q0 -25 6.5 -46.5t19.5 -37.5t32.5 -25.5t45.5 -9.5
q48 0 74.5 33.5t26.5 89.5q0 24 -6 44.5t-18.5 36.5t-32 25t-45.5 9zM190 710q66 0 107 -42.5t41 -114.5q0 -39 -12 -69t-32 -50.5t-47.5 -31t-58.5 -10.5q-35 0 -63 12t-47.5 33t-30 50t-10.5 64q0 34 11 63t31.5 50.5t48.5 33.5t62 12zM188 670q-46 0 -74.5 -31t-28.5 -88
q0 -25 6.5 -46.5t19.5 -37.5t32.5 -25.5t45.5 -9.5q48 0 74.5 33.5t26.5 89.5q0 24 -6 44.5t-18.5 36.5t-32 25t-45.5 9zM629 308q66 0 107 -42.5t41 -114.5q0 -39 -12 -69t-32 -50.5t-47.5 -31t-58.5 -10.5q-35 0 -63 12t-47.5 33t-30 50t-10.5 64q0 34 11 63t31.5 50.5
t48.5 33.5t62 12zM627 268q-46 0 -74.5 -31t-28.5 -88q0 -25 6.5 -46.5t19.5 -37.5t32.5 -25.5t45.5 -9.5q48 0 74.5 33.5t26.5 89.5q0 24 -6 44.5t-18.5 36.5t-32 25t-45.5 9zM151 -30l459 784l36 -24l-459 -784z" />
    <glyph glyph-name="guilsinglleft" unicode="&#x2039;" horiz-adv-x="296" 
d="M64 281l134 144l34 -31l-124 -134l119 -133l-34 -32l-129 144v42z" />
    <glyph glyph-name="guilsinglright" unicode="&#x203a;" horiz-adv-x="296" 
d="M232 239l-134 -144l-34 31l124 134l-119 133l34 32l129 -144v-42z" />
    <glyph glyph-name="Euro" unicode="&#x20ac;" horiz-adv-x="566" 
d="M570 565h-37v73q-65 21 -126 21q-51 0 -91 -15.5t-70 -43.5t-50.5 -67.5t-32.5 -87.5h340q-5 -14 -10.5 -24t-10.5 -21h-325q-3 -18 -3 -30v-31q0 -6 1 -10.5t7 -10.5h291q-5 -12 -10.5 -23.5t-10.5 -20.5h-273q12 -52 31 -95t49 -74t71 -48t97 -17q80 0 157 28
q0 -18 -1 -27t-1 -26q-39 -14 -78 -19t-82 -5q-131 0 -207 74.5t-95 208.5h-74q5 12 11 23.5l11 20.5h62q-11 11 -13 14.5t-2 5.5v10v16.5t1 16.5q0 2 0.5 9.5t0.5 9.5h-71q5 13 11 24l11 21h57q12 60 38.5 108t65 82.5t88 53t108.5 18.5q82 0 167 -31z" />
    <glyph glyph-name="trademark" unicode="&#x2122;" horiz-adv-x="990" 
d="M178 656h-136v44h320v-44h-136v-368h-48v368zM784 700h82v-412h-48v368h-2l-149 -368h-30l-149 368h-2v-368h-48v412h82l134 -339z" />
    <glyph glyph-name="uni25FC" unicode="&#x25fc;" horiz-adv-x="515" 
d="M0 515h515v-515h-515v515z" />
    <glyph glyph-name="glyph205" horiz-adv-x="278" 
d="M-9 746l35 30l111 -128l117 128l33 -30l-126 -138h-48z" />
    <glyph glyph-name="glyph206" horiz-adv-x="278" 
d="M48 696q0 38 26.5 64.5t64.5 26.5t64.5 -26.5t26.5 -64.5t-26.5 -64.5t-64.5 -26.5t-64.5 26.5t-26.5 64.5zM88 696q0 -23 14 -39t37 -16t37 16t14 39t-14 39t-37 16t-37 -16t-14 -39z" />
    <glyph glyph-name="glyph225" horiz-adv-x="278" 
d="M12 880l34 31l174 -153l-35 -27z" />
    <glyph glyph-name="glyph226" horiz-adv-x="278" 
d="M58 758l174 153l34 -31l-173 -149z" />
    <glyph glyph-name="glyph227" horiz-adv-x="278" 
d="M141 861l-117 -128l-33 30l126 138h48l122 -138l-35 -30z" />
    <glyph glyph-name="glyph228" horiz-adv-x="278" 
d="M-9 876l35 30l111 -128l117 128l33 -30l-126 -138h-48z" />
    <glyph glyph-name="glyph229" horiz-adv-x="278" 
d="M305 836l-9 -15q-13 -17 -34.5 -34.5t-57.5 -17.5q-20 0 -37.5 8t-33.5 18t-30.5 18t-29.5 8q-19 0 -32.5 -13t-21.5 -25l-7 -10l-39 26l8 13q12 18 34 37.5t57 19.5q24 0 42.5 -8t34.5 -17l30 -18.5t29 -8.5q17 0 30.5 11.5t23.5 22.5l8 11z" />
    <glyph glyph-name="glyph230" horiz-adv-x="278" 
d="M201 813q0 20 12.5 34t31.5 14t31.5 -14t12.5 -34t-12.5 -34t-31.5 -14t-31.5 14t-12.5 34zM-11 813q0 20 12.5 34t31.5 14t31.5 -14t12.5 -34t-12.5 -34t-31.5 -14t-31.5 14t-12.5 34z" />
    <glyph glyph-name="glyph231" horiz-adv-x="278" 
d="M48 821q0 38 26.5 64.5t64.5 26.5t64.5 -26.5t26.5 -64.5t-26.5 -64.5t-64.5 -26.5t-64.5 26.5t-26.5 64.5zM88 821q0 -23 14 -39t37 -16t37 16t14 39t-14 39t-37 16t-37 -16t-14 -39z" />
    </font>
</defs>
</svg>
